<?xml version="1.0" standalone="no"?>
<!DOCTYPE svg PUBLIC "-//W3C//DTD SVG 1.1//EN" "http://www.w3.org/Graphics/SVG/1.1/DTD/svg11.dtd" >
<svg xmlns="http://www.w3.org/2000/svg">
<metadata></metadata>
<defs>
<font id="pf_handbook_pro_xthin_tr_Rg" horiz-adv-x="880" >
<font-face units-per-em="2048" ascent="1536" descent="-512" />
<missing-glyph horiz-adv-x="389" />
<glyph unicode="&#xfb01;" horiz-adv-x="757" d="M33 856v18q0 12 10 13h102q14 0 15 16v141q0 72 20.5 122.5t54 81t77.5 45t91 14.5q78 0 135.5 -25t92.5 -59q6 -8 0 -15l-13 -14q-10 -10 -18 -2q-27 29 -79 51.5t-120 22.5q-55 0 -92 -17.5t-59.5 -48.5t-32.5 -72t-10 -90v-135q0 -16 12 -16h402q12 0 12 -13v-864 q0 -10 -10 -10h-25q-12 0 -12 10v830q0 6 -8 6h-363q-8 -2 -8 -17v-819q0 -10 -10 -10h-27q-12 0 -12 10v819q0 14 -8 17h-107q-10 0 -10 10z" />
<glyph unicode="&#xfb02;" horiz-adv-x="808" d="M33 856v18q0 12 10 13h102q14 0 15 16v141q0 72 20.5 122.5t53 81t74.5 45t87 14.5q117 0 201 -52l25 15q12 4 12 -10v-1092q0 -57 17.5 -95t84.5 -38h19q10 2 12 -2t2 -8v-25q0 -8 -14 -10q-55 -4 -88 8t-50.5 35.5t-22.5 55.5t-5 67v1058q-47 29 -91 40.5t-104 11.5 q-102 0 -144 -65.5t-42 -162.5v-135q0 -16 12 -16h250q10 0 10 -13v-18q0 -10 -8 -10h-256q-8 -2 -8 -17v-819q0 -10 -10 -10h-27q-12 0 -12 10v819q0 14 -8 17h-107q-10 0 -10 10z" />
<glyph unicode="&#xfb03;" horiz-adv-x="1200" d="M55 856v18q0 12 11 13h102q14 0 14 16v113q0 72 22.5 123t60.5 82.5t89.5 46t106.5 14.5q111 0 184 -39q10 -6 17 0q76 78 182 78q78 0 132 -24.5t89 -59.5q6 -8 0 -14l-12 -15q-10 -10 -19 -2q-27 29 -76 51.5t-116 22.5q-98 0 -144.5 -63.5t-46.5 -153.5v-160 q0 -16 13 -16h401q12 0 12 -13v-864q0 -10 -10 -10h-27q-12 0 -12 10v830q0 6 -8 6h-361q-8 -2 -8 -17v-819q0 -10 -10 -10h-27q-12 0 -12 10v819q0 14 -8 17h-356q-8 -2 -9 -17v-819q0 -10 -10 -10h-26q-12 0 -13 10v819q0 14 -8 17h-106q-10 0 -11 10zM229 903 q0 -16 13 -16h348q14 0 14 16v166q0 70 23 121q6 10 -9 16q-41 16 -81.5 25.5t-71.5 9.5q-133 0 -184.5 -64.5t-51.5 -177.5v-96z" />
<glyph unicode="&#xfb04;" horiz-adv-x="1253" d="M55 856v18q0 12 11 13h102q14 0 14 16v113q0 72 22.5 123t60.5 82.5t89.5 46t106.5 14.5q111 0 184 -39q10 -6 17 0q76 78 182 78q113 0 196 -51l25 14q12 4 12 -10v-1106q0 -57 17.5 -95t85.5 -38h18q10 2 12 -2t2 -8v-25q0 -8 -14 -10q-55 -4 -88 8t-50.5 35.5 t-22.5 55.5t-5 67v1073q-47 29 -91 40t-103 11q-102 0 -144.5 -65.5t-42.5 -161.5v-150q0 -16 13 -16h249q10 0 11 -13v-18q0 -10 -9 -10h-256q-8 -2 -8 -17v-819q0 -10 -10 -10h-27q-12 0 -12 10v819q0 14 -8 17h-356q-8 -2 -9 -17v-819q0 -10 -10 -10h-26q-12 0 -13 10 v819q0 14 -8 17h-106q-10 0 -11 10zM229 903q0 -16 13 -16h348q14 0 14 16v156q0 43 6 74.5t17 56.5q6 10 -9 16q-41 16 -81.5 25.5t-71.5 9.5q-133 0 -184.5 -64.5t-51.5 -177.5v-96z" />
<glyph horiz-adv-x="2048" />
<glyph horiz-adv-x="2048" />
<glyph unicode="&#xd;" horiz-adv-x="2048" />
<glyph unicode=" "  horiz-adv-x="389" />
<glyph unicode="&#x09;" horiz-adv-x="389" />
<glyph unicode="&#xa0;" horiz-adv-x="389" />
<glyph unicode="!" horiz-adv-x="487" d="M197 41q0 20 14 34.5t37 14.5t37 -13t14 -36t-14.5 -37t-36.5 -14q-23 0 -37 14t-14 37zM213 1247q0 6 2 10.5t12 4.5h31q14 0 14 -15l-8 -975q0 -12 -10 -12h-12q-12 0 -13 12z" />
<glyph unicode="&#x22;" horiz-adv-x="372" d="M92 874v379q0 10 12 11h21q10 0 10 -11v-379q0 -10 -10 -10h-21q-12 0 -12 10zM236 874v379q0 10 12 11h20q10 0 11 -11v-379q0 -10 -11 -10h-20q-12 0 -12 10z" />
<glyph unicode="#" d="M49 412l4 20q4 12 19 12h121q14 0 16 15l76 362q4 16 -9 17h-145q-10 0 -8 10l4 20q4 12 12 13h148q12 0 14 14l51 246q2 8 15 8h20q12 0 8 -12l-51 -242q-2 -14 10 -14h269q10 0 14 12l51 248q2 8 14 8h21q12 0 8 -12l-51 -240q-2 -16 14 -16h127q12 0 8 -13l-4 -20 q-2 -10 -12 -10h-129q-18 0 -20 -15l-76 -362q-4 -16 10 -17h156q10 0 6 -12l-4 -20q-2 -10 -13 -11h-155q-10 0 -12.5 -3t-4.5 -9l-63 -299q-2 -8 -12 -8h-19q-14 0 -10 12l63 295q0 6 -1 9t-11 3h-266q-14 0 -16 -12l-64 -299q-2 -8 -12 -8h-19q-14 0 -10 12l62 293 q2 14 -9 14h-127q-10 0 -8 11zM250 457q-2 -12 12 -13h268q12 0 15 17l78 364q2 12 -13 13h-264q-16 0 -18 -17z" />
<glyph unicode="$" d="M102 930q0 63 25 115.5t64.5 89t93 59.5t108.5 29q10 2 10 16v117q0 10 13 10h20q10 0 10 -10v-117q0 -14 17 -14q145 -6 252 -76q8 -8 2 -19l-17 -20q-8 -6 -16 2q-57 41 -120.5 56.5t-125.5 15.5q-49 0 -100 -14.5t-92 -46t-67.5 -81t-26.5 -116.5q0 -61 28.5 -103.5 t72.5 -71t96 -48t100 -33.5q61 -18 119.5 -46t104.5 -66t74.5 -89t28.5 -117q0 -72 -24.5 -126t-67.5 -91t-100.5 -58.5t-120.5 -27.5q-16 0 -17 -16v-144q0 -10 -10 -10h-20q-12 0 -13 10v144q0 14 -18 14q-76 4 -141.5 22.5t-124.5 59.5q-10 6 -2 16l18 21q6 4 17 -2 q51 -37 117.5 -56.5t140.5 -19.5q59 0 116.5 15.5t102.5 46t72.5 78.5t27.5 114q0 68 -28.5 115t-70.5 78.5t-89 52t-86 33.5q-53 16 -116 37.5t-115 57.5t-87 87t-35 127z" />
<glyph unicode="%" horiz-adv-x="1269" d="M94 674v407q0 86 56.5 137.5t154.5 51.5t156.5 -50.5t58.5 -138.5v-407q0 -90 -55 -139.5t-158 -49.5q-100 0 -156.5 51.5t-56.5 137.5zM139 676q0 -66 45 -110t123 -44q74 0 123 39t49 115v403q0 66 -46 109t-128 43q-78 0 -122 -43t-44 -109v-403zM322 -51l585 1366 q4 10 13 10h20q12 0 8 -10l-586 -1366q-4 -10 -14 -10h-18q-14 0 -8 10zM750 180v408q0 86 56 137t155 51q98 0 156.5 -50t58.5 -138v-408q0 -90 -55.5 -139t-157.5 -49q-100 0 -156.5 51t-56.5 137zM795 182q0 -66 45 -109.5t123 -43.5q74 0 123 38.5t49 114.5v404 q0 66 -46.5 108.5t-127.5 42.5q-78 0 -122 -43t-44 -108v-404z" />
<glyph unicode="&#x26;" horiz-adv-x="1167" d="M152 324v479q0 63 24.5 119.5t68.5 98.5t105.5 65.5t136.5 23.5h297q14 0 15 -12v-17q0 -14 -13 -14h-299q-63 0 -116.5 -19.5t-91 -55.5t-59 -85t-21.5 -108v-471q0 -59 20.5 -114.5t58 -96.5t92 -65.5t119.5 -24.5h48q72 0 126 24.5t91 65.5t55 96t18 115v270q0 4 -2 9 t-16 5h-313q-14 0 -15 15v14q0 14 15 14h383q84 0 148.5 14.5t135.5 67.5q8 4 13 0l14 -18q4 -8 0 -12q-2 -4 -4 -5q-57 -51 -140 -70.5t-155 -19.5q-12 0 -14.5 -4t-2.5 -14v-270q0 -70 -23.5 -131.5t-66.5 -107.5t-105.5 -72.5t-141.5 -26.5h-48q-76 0 -138 26.5 t-106 72.5t-68.5 107.5t-24.5 131.5z" />
<glyph unicode="'" horiz-adv-x="292" d="M121 874v379q0 10 12 11h21q10 0 10 -11v-379q0 -10 -10 -10h-21q-12 0 -12 10z" />
<glyph unicode="(" horiz-adv-x="585" d="M154 543q0 121 29.5 243.5t75.5 236.5t102.5 211t109.5 165q8 8 14 2l9 -4q6 -4 2 -15q-61 -90 -114.5 -190t-91.5 -207.5t-59.5 -219.5t-21.5 -222q0 -121 24.5 -234.5t65.5 -218t93.5 -198t107.5 -171.5q4 -10 -2 -14l-13 -10q-10 -6 -18 2q-59 72 -115.5 167 t-100.5 205.5t-70.5 230.5t-26.5 241z" />
<glyph unicode=")" horiz-adv-x="585" d="M133 -279q55 78 108.5 171.5t94.5 198t66.5 218t25.5 234.5q0 111 -22.5 222.5t-61.5 219t-92 207.5t-115 190q-4 10 2 15l8 4q6 6 15 -2q53 -68 109.5 -165t102.5 -211t75.5 -236.5t29.5 -243.5t-26.5 -241t-70.5 -230.5t-100.5 -205.5t-115.5 -167q-8 -8 -19 -2l-12 10 q-6 4 -2 14z" />
<glyph unicode="*" horiz-adv-x="702" d="M92 1112l10 33q6 18 23 10l201 -84q10 -6 10 8l-14 217q0 18 16 19h33q18 0 18 -19l-16 -217q-4 -16 8 -8l203 82q16 6 22 -8l10 -33q6 -18 -12 -22l-209 -52q-14 -2 -6 -14l139 -164q12 -14 -2 -22l-26 -21q-18 -12 -25 2l-113 187q-6 10 -16 -2l-113 -183 q-10 -16 -24 -4l-27 21q-10 4 -9 11t5 11l141 164q8 8 -6 14l-209 54q-18 2 -12 20z" />
<glyph unicode="+" d="M57 471v27q0 12 11 12h329q10 0 11 14v355q0 10 12 10h26q10 0 11 -10v-357q0 -12 14 -12h338q12 0 12 -12v-27q0 -10 -12 -10h-338q-14 0 -14 -12v-355q0 -10 -11 -10h-26q-12 0 -12 10v355q0 12 -15 12h-325q-10 0 -11 10z" />
<glyph unicode="," horiz-adv-x="294" d="M92 -190l17 280q0 12 16 12h57q20 0 15 -18l-64 -277q-2 -14 -14 -14h-17q-10 0 -10 17z" />
<glyph unicode="-" horiz-adv-x="569" d="M127 471v35q0 12 10 12h299q10 0 10 -12v-35q0 -10 -10 -10h-299q-10 0 -10 10z" />
<glyph unicode="." horiz-adv-x="288" d="M94 41q0 20 14.5 34.5t34.5 14.5q25 0 39.5 -13t14.5 -36t-14.5 -37t-39.5 -14q-20 0 -34.5 14t-14.5 37z" />
<glyph unicode="/" horiz-adv-x="561" d="M6 -127l506 1495q2 10 12 10h15q14 0 10 -10l-506 -1495q-2 -4 -3 -7t-7 -3h-15q-14 0 -12 10z" />
<glyph unicode="0" d="M119 293v680q0 137 86 221t233 84t235.5 -82t88.5 -223v-680q0 -145 -84 -226t-238 -81t-237.5 84t-83.5 223zM166 297q0 -119 74.5 -194.5t199.5 -75.5q117 0 196 67.5t79 202.5v672q0 117 -73 191.5t-204 74.5q-123 0 -197.5 -75t-74.5 -191v-672z" />
<glyph unicode="1" d="M211 1073v31q0 12 3 14l15 10l205 125q4 4 10.5 7.5t10.5 3.5h26q10 0 11 -11v-1243q0 -10 -11 -10h-24q-12 0 -13 10v1184q-4 6 -12 0l-207 -125q-14 -10 -14 4z" />
<glyph unicode="2" d="M82 12v17q0 10 2 17t4 11l444 592q90 119 131.5 206t41.5 140q0 57 -20.5 102.5t-56.5 76t-84 46t-104 15.5q-74 0 -143.5 -26.5t-106.5 -73.5q-8 -14 -22 -5l-16 13q-10 8 0 18q43 55 119.5 86t164.5 31q63 0 121.5 -15.5t101.5 -49t69 -86t26 -126.5q0 -29 -7.5 -62.5 t-27 -78.5t-56 -103.5t-94.5 -135.5l-424 -564q-10 -12 9 -12h587q10 0 11.5 -4t1.5 -8v-21q0 -12 -11 -12h-649q-12 0 -12 12z" />
<glyph unicode="3" d="M64.5 114.5q-1.5 4.5 9.5 12.5l16 10q8 4 10 4t15 -14q41 -51 104.5 -75.5t130.5 -24.5q61 0 115.5 23.5t94.5 64.5t62.5 96t22.5 121v76q0 51 -16.5 99t-47 85t-76.5 58.5t-108 21.5h-139q-10 0 -10 10v23q0 12 10 12h139q49 0 92 18.5t77 51t53.5 78.5t19.5 104 q0 53 -16.5 101t-49 85t-84 58.5t-120.5 21.5q-76 0 -140.5 -26.5t-101.5 -73.5q-8 -14 -23 -5l-16 13q-10 8 0 18q43 55 115.5 86t161.5 31q150 0 236.5 -82t86.5 -223q0 -57 -17.5 -105.5t-44 -83t-57 -57t-57.5 -29.5q-8 -2 -8 -6t8 -6q49 -12 84 -42t56.5 -68.5 t30.5 -81.5t9 -80v-74q0 -78 -24.5 -142.5t-68.5 -111.5t-107.5 -73.5t-143.5 -26.5q-92 0 -164.5 29.5t-113.5 86.5q-4 8 -5.5 12.5z" />
<glyph unicode="4" d="M84 340v20q0 20 10 37l453 848q6 12 11 15.5t13 3.5h19q16 0 8 -19l-463 -862q-10 -14 6 -14h445q10 0 11 4t1 12v399q0 10 14 11h19q10 0 10 -11v-399q0 -16 18 -16h172q10 0 11 -13v-20q0 -10 -11 -10h-174q-14 0 -14 -11v-305q0 -10 -10 -10h-21q-14 0 -14 10v305 q0 10 -12 11h-484q-18 0 -18 14z" />
<glyph unicode="5" d="M136 114.5q-1 4.5 9 12.5l17 10q8 4 10 4t14 -14q41 -51 104.5 -75.5t131.5 -24.5q125 0 204 70.5t79 201.5v182q0 61 -21.5 111.5t-58.5 86.5t-87.5 54.5t-107.5 18.5q-37 0 -86 -16.5t-82 -39.5q-12 -10 -21.5 -11t-15.5 3l-32 25q-10 6 -12.5 12t-2.5 18v508 q0 12 15 13h524q10 0 10 -13v-20q0 -10 -10 -10h-477q-12 0 -13 -11v-467q0 -16 19 -4q51 35 98 46.5t88 11.5q150 0 235 -86t85 -222v-182q0 -156 -86 -238.5t-246 -82.5q-92 0 -165 29.5t-114 86.5q-4 8 -5 12.5z" />
<glyph unicode="6" d="M131 299v659q0 70 24.5 129.5t68.5 101.5t104.5 65.5t132.5 23.5q88 0 158.5 -30.5t113.5 -86.5q10 -10 0 -18l-16 -13q-14 -10 -23 5q-37 47 -95 73.5t-132 26.5q-66 0 -119 -21.5t-91 -60.5t-58.5 -90t-20.5 -113v-315q0 -16 10 -2q53 66 119 99.5t158 33.5 q80 0 139.5 -24.5t100 -66.5t61 -97.5t20.5 -116.5v-162q0 -147 -86 -230t-243 -83q-145 0 -235.5 82t-90.5 231zM178 307q0 -125 75 -202.5t204 -77.5q143 0 212.5 78.5t69.5 201.5v146q0 127 -78.5 197.5t-205.5 70.5q-55 0 -105.5 -21.5t-88.5 -59.5t-60.5 -88 t-22.5 -106v-139z" />
<glyph unicode="7" d="M127 1085v168q0 10 14 11h611q14 0 14 -13v-18q0 -10 -3 -17.5t-5 -11.5l-514 -1190q-4 -12 -9.5 -13t-15.5 -1h-24q-16 0 -11 14l523 1196q4 10 -0.5 10.5t-8.5 0.5h-508q-16 0 -16 -15v-121q0 -10 -10 -10h-25q-12 0 -12 10z" />
<glyph unicode="8" d="M92 334q0 66 17.5 121t46 98t64.5 71.5t75 43.5q6 2 6 7t-8 9q-96 41 -138 119t-42 155q0 70 22.5 128.5t65.5 101.5t103.5 66.5t137.5 23.5q160 0 246 -89t86 -226q0 -88 -49 -166t-135 -117q-4 -2 -6 -5t6 -7q94 -47 147.5 -125t53.5 -207q0 -88 -29 -153.5t-78 -109.5 t-114.5 -65.5t-139.5 -21.5q-72 0 -134.5 22.5t-107.5 65.5t-70.5 108.5t-25.5 151.5zM145 332q0 -74 22.5 -131.5t61.5 -95t91.5 -58t111.5 -20.5q57 0 112.5 17t98.5 54t69.5 94.5t26.5 137.5q0 76 -23.5 136t-64.5 101t-96.5 62.5t-116.5 21.5q-59 0 -112.5 -20.5 t-93 -60.5t-63.5 -100t-24 -138zM164 956q0 -57 22.5 -104t61.5 -82t88 -54.5t104 -19.5t106.5 18.5t89.5 52.5t61.5 82t23.5 107q0 123 -73 201t-208 78q-125 0 -200.5 -78t-75.5 -201z" />
<glyph unicode="9" d="M104 803v149q0 147 90.5 236.5t247.5 89.5q145 0 231.5 -88t86.5 -238v-628q0 -84 -29 -146.5t-76 -105.5t-108.5 -64.5t-126.5 -21.5q-88 0 -159 30.5t-114 85.5q-10 10 0 19l17 12q14 10 22 -4q37 -47 95.5 -73.5t132.5 -26.5q59 0 113.5 19.5t95.5 58t65.5 95 t24.5 130.5v297q0 16 -11 2q-53 -66 -118.5 -99.5t-157.5 -33.5q-80 0 -139.5 24.5t-100.5 66.5t-61.5 97t-20.5 117zM152 811q0 -127 78.5 -197.5t205.5 -70.5q55 0 105.5 21.5t88.5 59.5t60.5 88t22.5 105v127q0 61 -18.5 115.5t-52.5 93.5t-85 61.5t-115 22.5 q-72 0 -126 -22.5t-91 -62.5t-55 -93t-18 -115v-133z" />
<glyph unicode=":" horiz-adv-x="288" d="M94 41q0 20 14.5 34.5t34.5 14.5q25 0 39.5 -13t14.5 -36t-14.5 -37t-39.5 -14q-20 0 -34.5 14t-14.5 37zM94 717q0 20 14.5 34.5t34.5 14.5q25 0 39.5 -13t14.5 -36t-14.5 -37t-39.5 -14q-20 0 -34.5 15t-14.5 36z" />
<glyph unicode=";" horiz-adv-x="315" d="M96 -190l17 280q0 12 16 12h57q20 0 15 -18l-64 -277q-2 -14 -14 -14h-17q-10 0 -10 17zM111 717q0 20 14 34.5t35 14.5q25 0 39 -13t14 -36t-14.5 -37t-38.5 -14q-20 0 -34.5 15t-14.5 36z" />
<glyph unicode="&#x3c;" d="M51 518q0 12 9.5 20.5t17.5 12.5l731 399q20 10 20 -8v-18q0 -10 -22 -25l-676 -375q-4 -2 -4 -6q0 -2 4 -4l676 -369q12 -6 17 -10t5 -14v-23q0 -10 -5 -10t-15 4l-731 395q-10 4 -18.5 11.5t-8.5 19.5z" />
<glyph unicode="=" d="M63 307v19q0 12 11 12h731q10 0 10 -12v-19q0 -10 -10 -10h-731q-10 0 -11 10zM63 688v19q0 12 11 12h731q10 0 10 -12v-19q0 -10 -10 -10h-731q-10 0 -11 10z" />
<glyph unicode="&#x3e;" d="M51 98v23q0 10 5 14t18 10l676 369q4 2 4 4q0 4 -4 6l-676 375q-23 14 -23 25v18q0 18 21 8l731 -399q8 -4 17 -12.5t9 -20.5t-8 -19t-18 -12l-731 -395q-10 -4 -15.5 -4t-5.5 10z" />
<glyph unicode="?" horiz-adv-x="856" d="M156 1143q-10 8 0 18q43 55 116.5 86t165.5 31q66 0 122 -19.5t97 -56.5t64.5 -92t23.5 -125q0 -76 -49 -158t-157 -153q-49 -33 -86 -62.5t-61.5 -62.5t-36 -71t-11.5 -87v-121q0 -10 -10 -10h-25q-12 0 -12 10v125q0 76 35 144.5t110 117.5q45 31 91.5 65t82 73t58 85 t22.5 105q0 33 -10 76t-40 82t-81 65.5t-131 26.5q-76 0 -139.5 -26.5t-99.5 -73.5q-8 -14 -23 -5zM266 41q0 20 14.5 34.5t36.5 14.5q23 0 37.5 -13t14.5 -36t-14.5 -37t-37.5 -14t-37 14t-14 37z" />
<glyph unicode="@" horiz-adv-x="1423" d="M106 596q0 139 45.5 259t127 208t198.5 138t262 50q123 0 230.5 -36.5t187.5 -107.5t127 -175.5t47 -239.5q0 -215 -85 -325.5t-216 -110.5q-8 0 -25.5 2t-37 9t-39 20.5t-31.5 36.5q-4 6 -6 8t-10 -6q-39 -45 -88.5 -61.5t-85.5 -16.5q-47 0 -88 16.5t-73 47t-50.5 71.5 t-18.5 90q0 45 17.5 84t48 68.5t71.5 47t88 17.5q111 0 170 -65q4 -4 9.5 -3t5.5 11v31q0 31 -7.5 65.5t-28 64t-58 50t-99.5 20.5q-35 0 -75.5 -10t-73.5 -23q-16 -12 -21 5l-6 20q-2 4 -2 7t10 9q35 14 82 25.5t90 11.5q123 0 178.5 -63.5t55.5 -171.5v-268 q0 -39 17.5 -72t78.5 -33q68 0 117 34t80.5 89t47 124.5t15.5 143.5q0 129 -47 226.5t-124 162t-174 97t-195 32.5q-133 0 -244 -45t-189.5 -126t-121.5 -193.5t-43 -249.5q0 -143 46 -258t126.5 -195t193.5 -123t248 -43q100 0 186 17.5t148 46.5q16 6 22 -6l6 -15 q6 -12 0 -16t-16 -8q-86 -31 -168 -46.5t-170 -15.5q-147 0 -270 46.5t-211 132.5t-136.5 208.5t-48.5 274.5zM524 473q0 -74 52.5 -127t125.5 -53q92 0 137.5 53t45.5 127t-48.5 125t-134.5 51q-37 0 -68.5 -13t-56 -38t-39 -56.5t-14.5 -68.5z" />
<glyph unicode="A" horiz-adv-x="899" d="M22 1q-1 0 -2 2q0 3 3 9l385 1241q4 10 10 11h55q12 0 14 -11l387 -1237q2 -5 2 -9q0 -7 -8 -7h-28q-8 0 -10.5 1t-6.5 11l-98 314q-2 8 -6 9t-8 1h-529q-8 0 -10 -8l-96 -316q-4 -12 -15 -12h-30q-5 0 -9 1zM192 380q3 -1 7 -1h499q10 0 9 10l-170 549l-86 274 q-2 8 -4.5 8t-4.5 -8l-86 -282l-163 -539q-2 -6 -2 -8q0 -3 1 -3z" />
<glyph unicode="B" horiz-adv-x="962" d="M131 12v1239q0 12 10 13h383q135 0 223.5 -76t88.5 -225q0 -41 -9.5 -82t-31 -79t-57.5 -69t-87 -47q-6 -2 -6 -5t6 -5q57 -16 98.5 -50t68 -78t39.5 -97.5t13 -104.5q0 -76 -22.5 -139.5t-65.5 -109.5t-103.5 -71.5t-135.5 -25.5h-402q-10 0 -10 12zM178 53q0 -8 4 -8 h11h350q66 0 118 23.5t87.5 64.5t54 95.5t18.5 115.5q0 68 -21.5 125t-61.5 99t-94 65.5t-118 23.5h-336q-12 0 -12 -12v-592zM178 713q0 -6 1 -8.5t11 -2.5h338q113 0 186.5 68t73.5 191q0 117 -67.5 188.5t-196.5 71.5h-334q-12 0 -12 -11v-497z" />
<glyph unicode="C" horiz-adv-x="827" d="M119 317v641q0 63 25.5 122t71.5 103t112.5 69.5t146.5 25.5q88 0 167 -30.5t122 -86.5q10 -10 0 -18l-16 -13q-14 -10 -23 5q-37 47 -106.5 73.5t-143.5 26.5q-68 0 -124 -21.5t-97 -59.5t-64.5 -89t-23.5 -111v-632q0 -59 20.5 -112.5t60.5 -93.5t97 -63.5t133 -23.5 q68 0 139.5 23.5t112.5 74.5q12 14 16.5 14t8.5 -4l10 -8q10 -8 10 -13.5t-6 -11.5q-101 -118 -288 -118h-3q-86 0 -152.5 25.5t-112.5 70.5t-69.5 105.5t-23.5 129.5z" />
<glyph unicode="D" horiz-adv-x="950" d="M127 12v1239q0 12 10 13h391q319 0 320 -310v-630q0 -154 -85 -239t-237 -85h-389q-10 0 -10 12zM174 53q0 -10 14 -10h336q125 0 200 68.5t75 212.5v614q0 57 -10.5 108.5t-41 90.5t-84 61.5t-139.5 22.5h-336q-14 0 -14 -11v-1157z" />
<glyph unicode="E" horiz-adv-x="866" d="M127 12v1239q0 12 10 13h623q10 0 10 -13v-20q0 -10 -10 -10h-572q-14 0 -14 -11v-528q0 -6 1 -8t11 -2h510q10 0 11 -13v-20q0 -10 -11 -10h-510q-12 0 -12 -13v-563q0 -10 14 -10h607q10 0 10 -10v-21q0 -12 -10 -12h-658q-10 0 -10 12z" />
<glyph unicode="F" horiz-adv-x="806" d="M129 10v1241q0 12 14 13h643q10 0 11 -13v-20q0 -10 -11 -10h-593q-14 0 -15 -11v-528q0 -6 1 -8t11 -2h502q10 0 10 -13v-20q0 -10 -10 -10h-502q-12 0 -12 -13l-2 -606q0 -10 -10 -10h-25q-12 0 -12 10z" />
<glyph unicode="G" horiz-adv-x="925" d="M119 309v654q0 63 26.5 120.5t73.5 100.5t111.5 68.5t142.5 25.5q88 0 170 -29.5t125 -85.5q10 -10 0 -18l-16 -15q-14 -10 -23 5q-37 47 -109.5 73.5t-146.5 26.5q-66 0 -122 -21.5t-97 -58.5t-64.5 -87t-23.5 -110v-645q0 -68 24.5 -120t67.5 -88.5t99.5 -56 t119.5 -19.5q66 0 122 18.5t98 55t65.5 90t23.5 122.5v301q0 12 -12 13h-194q-10 0 -11 10v20q0 12 11 13h239q14 0 15 -13v-346q0 -72 -26 -131t-72 -103t-111.5 -68.5t-147.5 -24.5q-78 0 -143.5 22.5t-113.5 65.5t-74.5 102.5t-26.5 132.5z" />
<glyph unicode="H" horiz-adv-x="999" d="M123 10v1243q0 10 12 11h25q10 0 10 -11v-571q0 -6 1 -8t11 -2h635q10 0 11 2t1 8v571q0 10 13 11h24q10 0 11 -11v-1243q0 -10 -11 -10h-24q-12 0 -13 10v606q0 12 -12 13h-635q-12 0 -12 -13v-606q0 -10 -10 -10h-25q-12 0 -12 10z" />
<glyph unicode="I" horiz-adv-x="372" d="M162 10v1243q0 10 12 11h25q10 0 10 -11v-1243q0 -10 -10 -10h-25q-12 0 -12 10z" />
<glyph unicode="J" horiz-adv-x="421" d="M-74 -176q4 2 11 4l38 12q74 23 118 56.5t67.5 82t31 113t7.5 150.5v1009q0 10 10 11h27q12 0 12 -11v-1003q0 -90 -8.5 -162t-35 -127t-76.5 -96t-134 -68l-43 -14q-4 -2 -7 -2q-8 0 -12 12l-6 21q-2 5 -2 8t2 4z" />
<glyph unicode="K" horiz-adv-x="931" d="M123 12v1235q0 8 1 12.5t11 4.5h25q10 0 10 -17v-635q0 -14 10 -14q6 0 13 8l579 643q12 12 23 13h26q10 0 9 -5.5t-5 -9.5l-467 -520q-20 -27 9 -16q29 10 66.5 13t66.5 3q98 0 161.5 -30.5t100.5 -79t52 -105.5t20 -111l26 -389q0 -12 -12 -12h-21q-10 0 -12 14 l-27 365q-4 47 -14 100t-41 99.5t-90 76t-158 29.5q-96 0 -156.5 -29.5t-96 -74.5t-49 -98.5t-13.5 -100.5v-367q0 -14 -10 -14h-25q-12 0 -12 12z" />
<glyph unicode="L" horiz-adv-x="776" d="M109 12v1241q0 10 12 11h24q10 0 11 -11v-1198q0 -10 14 -10h586q10 0 10 -10v-23q0 -12 -10 -12h-633q-14 0 -14 12z" />
<glyph unicode="M" horiz-adv-x="1222" d="M113 12v1231q0 4 3 12.5t15 8.5h31q14 0 18 -11l426 -1136q4 -16 10 0l426 1136q4 10 19 11h31q14 0 16 -8.5t2 -12.5v-1231q0 -12 -10 -12h-27q-12 0 -12 12v1123q0 4 -2 5t-6 -5l-408 -1067q-8 -14 -18 -15h-29q-16 0 -20 13l-408 1069q-4 6 -6 5t-2 -5v-1123 q0 -12 -12 -12h-27q-10 0 -10 12z" />
<glyph unicode="N" horiz-adv-x="995" d="M115 12v1237q0 14 14 15h33q12 0 18 -11l643 -1163q4 -6 6 -5t2 5v1161q0 12 13 13h26q10 0 11 -13v-1235q0 -16 -17 -16h-30q-12 0 -19 10l-643 1157q-4 6 -6 5t-2 -5v-1155q0 -12 -12 -12h-27q-10 0 -10 12z" />
<glyph unicode="O" horiz-adv-x="954" d="M119 338v604q0 68 24.5 129.5t70.5 107.5t111.5 72.5t149.5 26.5q86 0 153.5 -25.5t113.5 -71.5t70 -107.5t24 -131.5v-618q0 -72 -24 -134.5t-69 -107.5t-111.5 -70.5t-154.5 -25.5q-96 0 -163.5 28.5t-110.5 77.5t-63.5 112.5t-20.5 133.5zM166 342q0 -59 16.5 -115.5 t53 -100.5t96 -70.5t145.5 -26.5q150 0 230.5 82t80.5 217v610q0 57 -17 110.5t-56 94.5t-98.5 65.5t-141.5 24.5q-78 0 -135 -24.5t-96 -64.5t-58.5 -94.5t-19.5 -111.5v-596z" />
<glyph unicode="P" horiz-adv-x="899" d="M133 10v1239q0 14 17 15h403q72 0 129 -23.5t97 -65.5t61.5 -99.5t21.5 -127.5q0 -145 -84 -232t-225 -87h-358q-14 0 -15 -15v-604q0 -10 -10 -10h-25q-12 0 -12 10zM180 688q0 -16 15 -16h358q133 0 198.5 77.5t65.5 198.5q0 117 -70.5 195t-193.5 78h-354 q-12 0 -15.5 -3.5t-3.5 -9.5v-520z" />
<glyph unicode="Q" horiz-adv-x="954" d="M119 319v637q0 68 27.5 127.5t76.5 102.5t113.5 67.5t138.5 24.5q76 0 142.5 -23.5t114.5 -66.5t76 -102.5t28 -129.5v-645q0 -135 -85 -222t-235 -101q-10 -2 -12 -6.5t-2 -8.5q0 -37 3 -71.5t17.5 -61t41 -43t75.5 -16.5q29 0 56.5 4t66.5 18q10 6 14 -6l6 -20 q4 -10 1 -12.5t-7 -4.5q-63 -24 -132 -24h-5q-61 0 -97 18.5t-55.5 51t-24.5 75.5t-5 90q0 8 -1 11.5t-12 3.5q-76 4 -136 31.5t-102 73.5t-64.5 104.5t-22.5 123.5zM166 324q0 -63 21.5 -116.5t61.5 -93.5t97 -62.5t131 -22.5q66 0 122 19.5t98 56t66.5 90t24.5 120.5v637 q0 57 -21.5 108.5t-62 90.5t-99 61.5t-130.5 22.5q-68 0 -124 -22.5t-98 -60.5t-64.5 -90t-22.5 -110v-628z" />
<glyph unicode="R" horiz-adv-x="933" d="M123 10v1235q0 16 20 17h373q164 0 250 -92.5t86 -239.5q0 -129 -61.5 -215t-145.5 -131q-8 -6 0 -21l256 -551q2 -4 2 -6q0 -6 -10 -6h-27q-12 0 -16 12l-248 533q-6 16 -13 21t-24 5h-381q-14 0 -14 -14v-547q0 -10 -10 -10h-25q-12 0 -12 10zM170 629q0 -16 14 -17 h402q23 0 31 3t12 8q78 41 127 117.5t49 181.5q0 49 -12.5 102t-47 97t-95 72t-156.5 28h-301q-23 0 -23 -17v-575z" />
<glyph unicode="S" horiz-adv-x="847" d="M66 115q0 2 6 8l16 12q10 6 13 4t10 -8q18 -25 50 -43t69.5 -31.5t78.5 -20.5t78 -7q72 0 133.5 17t107.5 52t72.5 88.5t26.5 124.5q0 74 -21.5 124t-59.5 87t-89 62.5t-111 50.5q-59 25 -123.5 52.5t-117.5 64t-89 88t-36 125.5q0 78 29.5 137t78 98t108.5 58.5 t122 19.5q86 0 163.5 -22.5t137.5 -67.5q8 -6 2 -17l-16 -22q-6 -6 -17 0q-59 47 -131 66.5t-135 19.5q-49 0 -101.5 -15.5t-95.5 -47t-69.5 -83t-26.5 -122.5q0 -59 29.5 -102.5t75 -76t100.5 -57t106 -45.5q76 -31 138.5 -62.5t105.5 -73.5t66.5 -97.5t23.5 -130.5 q0 -86 -30.5 -148.5t-84 -103.5t-123 -60.5t-149.5 -19.5q-43 0 -90 7t-90 22.5t-79 36t-56 48.5q-6 6 -6 11z" />
<glyph unicode="T" horiz-adv-x="800" d="M20 1231v20q0 12 11 13h739q10 0 10 -13v-20q0 -10 -10 -10h-334q-14 0 -14 -11v-1200q0 -10 -10 -10h-23q-14 0 -14 10v1200q0 10 -13 11h-331q-10 0 -11 10z" />
<glyph unicode="U" horiz-adv-x="962" d="M123 324v929q0 10 12 11h25q10 0 10 -11v-921q0 -63 19.5 -118.5t58.5 -96.5t98.5 -64.5t138.5 -23.5q76 0 133.5 23.5t96.5 64.5t58.5 94t19.5 115v927q0 10 12 11h24q10 0 11 -11v-929q0 -74 -26 -136.5t-72 -107.5t-111.5 -69.5t-147.5 -24.5q-92 0 -159.5 26.5 t-111.5 72.5t-66.5 107.5t-22.5 131.5z" />
<glyph unicode="V" horiz-adv-x="831" d="M17 1262q3 2 10 2h28q10 0 15 -13l211 -737l131 -463q4 -16 8 0l131 463l209 737q4 10 6 11.5t10 1.5h29q8 0 8 -8q0 -4 -2 -9l-356 -1237q-2 -10 -15 -10h-55q-6 0 -10 10l-357 1241q-2 6 -2 9q0 1 1 2z" />
<glyph unicode="W" horiz-adv-x="1275" d="M-1 1262q3 2 9 2h27q10 0 14 -13l182 -841l78 -361q4 -16 8 0l80 359l193 843q2 12 16 13h39q12 0 14 -17l213 -876l76 -322q4 -16 8 0l68 330l180 872q4 10 6 11.5t11 1.5h30q6 0 6 -11v-6l-264 -1237q-2 -10 -14 -10h-55q-6 0 -11 10l-211 867l-73 313q-2 4 -4 4t-2 -4 l-72 -320l-199 -860q-2 -10 -14 -10h-55q-6 0 -11 10l-272 1241q-2 6 -2 9q0 1 1 2z" />
<glyph unicode="X" horiz-adv-x="808" d="M10 5q-1 2 -1 3q0 3 3 6l357 631q8 12 6 16.5t-4 8.5l-326 579q-8 14 6 15h29q12 0 14 -4l301 -541q4 -6 7.5 -5t5.5 5l303 541q2 4 14 4h29q12 0 6 -15l-324 -575q-8 -12 -5 -18.5t5 -10.5l359 -631q3 -3 3 -6q0 -2 -1 -3q-2 -5 -9 -5h-26h-7t-7 4l-338 598q-4 8 -7.5 6 t-5.5 -4l-338 -600q-4 -4 -7 -4h-7h-27q-6 0 -8 5z" />
<glyph unicode="Y" horiz-adv-x="792" d="M24 1262q3 2 9 2h30q6 0 8.5 -4.5t6.5 -8.5l315 -690q4 -8 8 0l316 690q4 8 6 10.5t10 2.5h29q9 0 9 -7q0 -4 -3 -10l-338 -725q-8 -16 -8 -27.5v-21.5v-463q0 -10 -10 -10h-25q-12 0 -12 10v447q0 16 -1 28.5t-9 28.5l-340 737q-2 6 -2 9q0 2 1 2z" />
<glyph unicode="Z" horiz-adv-x="776" d="M20 12v17q0 10 2.5 17t4.5 11l663 1153q4 8 2 9.5t-10 1.5h-619q-14 0 -14 12v18q0 12 12 13h676q12 0 13 -13v-16q0 -14 -5 -23l-661 -1155q-8 -12 8 -12h651q10 0 11.5 -4t1.5 -8v-21q0 -12 -11 -12h-712q-12 0 -13 12z" />
<glyph unicode="[" horiz-adv-x="600" d="M184 -274v1640q0 12 11 12h233q10 0 10 -12v-16q0 -10 -10 -11h-182q-14 0 -15 -10v-1567q0 -10 15 -10h182q10 0 10 -10v-16q0 -12 -10 -13h-233q-10 0 -11 13z" />
<glyph unicode="\" horiz-adv-x="561" d="M12 1368q-4 10 11 10h14q10 0 12 -10l506 -1495q2 -10 -12 -10h-15q-6 0 -7 3t-3 7z" />
<glyph unicode="]" horiz-adv-x="612" d="M113 -258q0 10 10 10h182q14 0 14 10v1567q0 10 -14 10h-182q-10 0 -10 11v16q0 12 10 12h233q10 0 11 -12v-1640q0 -12 -11 -13h-233q-10 0 -10 13v16z" />
<glyph unicode="^" horiz-adv-x="970" d="M133 809l311 457q4 10 23 10h18q6 0 9.5 -3t7.5 -7l327 -467q6 -8 -6 -19l-12 -8q-4 -4 -10 1t-10 9l-316 418q-4 6 -8 0l-299 -414q-10 -16 -23 -8l-10 8q-12 10 -2 23z" />
<glyph unicode="_" horiz-adv-x="1024" d="M-10 -172q0 12 12 12h1022q10 0 10 -12v-18q0 -10 -10 -11h-1022q-10 0 -10 11z" />
<glyph unicode="`" horiz-adv-x="788" d="M278 1268.5q1 7.5 13 13.5l31 14q18 8 24 -6l133 -254q6 -12 -4 -18l-10 -6q-10 -6 -19 6l-165 239q-4 4 -3 11.5z" />
<glyph unicode="a" horiz-adv-x="727" d="M45 274q0 61 19.5 115.5t57.5 95.5t94 65.5t130 24.5q84 0 147.5 -34.5t94.5 -91.5q4 -8 7 -5.5t3 9.5v147q0 43 -9 89t-35 83t-74 60.5t-128 23.5q-51 0 -114.5 -11t-104.5 -30q-10 -8 -16 4l-8 19q-2 8 8 16q49 23 115.5 34t121.5 11q152 0 221.5 -74.5t69.5 -220.5 v-594q0 -10 -12 -10h-25q-10 0 -10 10v103q0 12 -4 12t-8 -8q-39 -59 -103.5 -93t-152.5 -34q-135 0 -210 77.5t-75 206.5zM90 276q0 -53 13.5 -98t43 -78.5t76.5 -53t115 -19.5q55 0 103 20.5t82 55t53.5 81t19.5 99.5q0 51 -18.5 98t-51 81t-79 54.5t-101.5 20.5 q-61 0 -109.5 -21.5t-81 -56.5t-49 -83t-16.5 -100z" />
<glyph unicode="b" horiz-adv-x="802" d="M102 10v1284q0 10 13 11h24q10 0 11 -11v-518q0 -27 14 -6q47 63 114.5 95t145.5 32q90 0 150.5 -30.5t96.5 -79t51 -107.5t15 -117v-262q0 -66 -20.5 -123t-59.5 -99t-98 -65.5t-135 -23.5t-147.5 28.5t-112.5 96.5q-6 10 -10 8t-4 -12v-101q0 -10 -11 -10h-24 q-12 0 -13 10zM147 301q0 -59 19.5 -109.5t55.5 -86t86 -56t112 -20.5q131 0 201.5 75.5t70.5 202.5v262q0 55 -16.5 107.5t-49 92.5t-85 63.5t-121.5 23.5q-59 0 -109.5 -22.5t-86.5 -61.5t-56.5 -90t-20.5 -109v-272z" />
<glyph unicode="c" horiz-adv-x="727" d="M92 307v275q0 70 23.5 128t66.5 99t101.5 64.5t128.5 23.5q82 0 148.5 -29.5t107.5 -83.5q4 -5 4 -9t-4 -7l-21 -16q-8 -8 -16 2q-37 49 -95.5 75.5t-123.5 26.5q-61 0 -111.5 -21.5t-86.5 -58.5t-56.5 -87t-20.5 -109v-271q0 -131 75 -204.5t202 -73.5q72 0 129 23.5 t90 70.5q12 14 20 8l15 -10q7 -4 7 -10q0 -4 -3 -9q-37 -59 -105.5 -86.5t-154.5 -27.5q-154 0 -237 88t-83 229z" />
<glyph unicode="d" horiz-adv-x="823" d="M100 301v266q0 57 17.5 115.5t56.5 107t98.5 78t145.5 29.5q78 0 147.5 -34t108.5 -95q6 -10 10 -8t4 14v520q0 10 10 11h25q12 0 12 -11v-1284q0 -10 -12 -10h-25q-10 0 -10 10v101q0 20 -14 4q-47 -66 -114.5 -95.5t-143.5 -29.5q-78 0 -136.5 23.5t-98.5 65.5 t-60.5 99.5t-20.5 122.5zM145 307q0 -123 71 -200.5t202 -77.5q61 0 111.5 20.5t86 56t55 86t19.5 109.5v272q0 57 -20.5 108.5t-56 90.5t-86 61.5t-109.5 22.5q-70 0 -121 -23.5t-85 -63.5t-50.5 -92t-16.5 -108v-262z" />
<glyph unicode="e" horiz-adv-x="804" d="M98 305v270q0 78 24.5 137.5t67.5 100.5t100.5 62.5t123.5 21.5t124 -19.5t101 -59.5t68.5 -103.5t25.5 -151.5v-84q0 -29 -22 -28h-547q-20 0 -21 -21v-127q0 -119 70 -196.5t207 -77.5q86 0 135 26.5t86 69.5q8 10 11 11t7 -3l15 -10q12 -6 4 -19q-49 -66 -112.5 -90 t-149.5 -24q-152 0 -235 86t-83 229zM143 516q0 -22 19 -22h2h506q18 0 18 22v62q0 123 -74.5 200.5t-199.5 77.5q-57 0 -106.5 -20.5t-86.5 -57.5t-57.5 -87t-20.5 -109v-66z" />
<glyph unicode="f" horiz-adv-x="509" d="M33 856v18q0 12 10 13h102q14 0 15 16v152q0 143 73.5 204.5t186.5 61.5q29 0 66.5 -5t66.5 -16q8 -2 6 -12l-4 -18q-4 -12 -14 -10q-23 8 -52.5 14t-60.5 6q-63 0 -105 -16.5t-68 -48t-37 -76.5t-11 -101v-135q0 -16 12 -16h277q10 0 10 -13v-18q0 -10 -8 -10h-283 q-8 -2 -8 -17v-819q0 -10 -10 -10h-27q-12 0 -12 10v819q0 14 -8 17h-107q-10 0 -10 10z" />
<glyph unicode="g" horiz-adv-x="845" d="M104 592q0 59 21.5 114.5t61.5 97.5t98.5 67.5t130.5 25.5q41 0 96 -13.5t102 -54.5q16 -14 21.5 -9t11.5 9q33 25 77 44.5t91 23.5q3 1 5 1q11 0 11 -17v-39q0 -14 -12 -15q-35 -2 -80 -12t-61 -20q-10 -6 -8 -13.5t12 -23.5q23 -33 33 -77t10 -83q0 -76 -26.5 -134 t-69.5 -99t-99.5 -62.5t-117.5 -21.5q-20 0 -39 1t-39 5q-16 4 -22.5 2t-14.5 -8q-23 -14 -46.5 -37t-44 -50.5t-32.5 -58.5t-12 -59q0 -25 5 -41.5t28 -11.5q63 12 134.5 21t139.5 9q74 0 142.5 -13t120.5 -43t83 -75t31 -106q0 -66 -37 -125.5t-100 -93.5q-4 -3 -8 -3 q-5 0 -9 5l-14 20q-6 10 6 21q43 29 77 70.5t34 99.5q0 57 -29 95t-74 60.5t-103.5 32.5t-115.5 10q-66 0 -149.5 -11t-161.5 -22q-27 -4 -37 20.5t-10 90.5q0 35 33.5 99.5t105.5 119.5q14 6 -2 19q-72 39 -110 111.5t-38 156.5zM152 592q0 -49 17 -97.5t51 -86t82 -61 t110 -23.5q63 0 113 23.5t84 62.5t51.5 88t17.5 100t-18.5 98t-52.5 82t-83 55.5t-110 20.5q-59 0 -107.5 -21.5t-82.5 -57.5t-53 -84t-19 -99z" />
<glyph unicode="h" horiz-adv-x="839" d="M106 10v1284q0 10 13 11h24q10 0 11 -11v-516q0 -27 14 -6q47 63 114.5 94t145.5 31q90 0 150.5 -29.5t97.5 -78t52 -107.5t15 -119v-553q0 -10 -10 -10h-24q-12 0 -13 10v559q0 55 -17 107.5t-51 92.5t-85 64.5t-119 24.5q-59 0 -109.5 -22.5t-86 -61.5t-55 -91 t-19.5 -110v-563q0 -10 -11 -10h-24q-12 0 -13 10z" />
<glyph unicode="i" horiz-adv-x="327" d="M123 1137q0 18 13.5 30.5t29.5 12.5t27.5 -12.5t11.5 -30.5t-11.5 -30.5t-27.5 -12.5t-29.5 12t-13.5 31zM139 10v867q0 10 13 10h24q10 0 10 -10v-867q0 -10 -10 -10h-24q-12 0 -13 10z" />
<glyph unicode="j" horiz-adv-x="280" d="M-127 -336l6 25q2 8 12 6q16 -4 42 -9t44 -5q76 0 109 44t33 136v1016q0 10 10 10h27q12 0 12 -10v-1014q0 -123 -47 -174t-146 -51q-57 0 -96 14q-8 2 -6 12zM102 1137q0 18 13.5 30.5t29.5 12.5t27.5 -12.5t11.5 -30.5t-11 -30.5t-28 -12.5q-16 0 -29.5 12t-13.5 31z " />
<glyph unicode="k" horiz-adv-x="798" d="M102 10v1284q0 10 13 11h24q10 0 11 -11v-858q0 -16 6 -14t12 6l471 449q8 6 12 8t15 2h34q12 0 5 -13l-340 -321q-10 -10 -9.5 -15.5t11.5 -2.5q10 2 24.5 3t24.5 1q92 0 151.5 -29t93 -74t47 -101t15.5 -110l10 -215q0 -10 -12 -10h-25q-10 0 -10 10l-10 215 q-2 49 -15.5 98.5t-43 87.5t-79 61.5t-124.5 23.5q-55 0 -104.5 -21.5t-84.5 -57.5t-55 -80t-20 -89v-238q0 -10 -11 -10h-24q-12 0 -13 10z" />
<glyph unicode="l" horiz-adv-x="372" d="M152 156v1138q0 10 8 11h24q12 0 13 -11v-1126q0 -57 17 -95t85 -38h18q10 2 12.5 -2t2.5 -8v-25q0 -8 -15 -10q-14 -1 -26 -1q-37 0 -61 9q-32 12 -50 35.5t-23 55.5t-5 67z" />
<glyph unicode="m" horiz-adv-x="1320" d="M102 10v594q0 70 22.5 124t62.5 92t95.5 57.5t118.5 19.5q68 0 135.5 -33t118.5 -125q8 -16 19 0q43 78 116.5 118t141.5 40q154 0 221.5 -77t67.5 -216v-594q0 -10 -11 -10h-24q-12 0 -12 10v594q0 111 -55.5 181.5t-192.5 70.5q-47 0 -90 -19.5t-76 -53t-53.5 -80 t-20.5 -99.5v-594q0 -10 -10 -10h-25q-12 0 -12 10v594q0 53 -19.5 99.5t-53.5 80t-77 53t-88 19.5q-111 0 -181 -70.5t-70 -181.5v-594q0 -10 -11 -10h-24q-12 0 -13 10z" />
<glyph unicode="n" horiz-adv-x="839" d="M106 10v867q0 10 13 10h24q10 0 11 -10v-99q0 -27 14 -6q47 63 114.5 94t145.5 31q90 0 150.5 -29.5t97.5 -78t52 -107.5t15 -119v-553q0 -10 -10 -10h-24q-12 0 -13 10v559q0 55 -17 107.5t-51 92.5t-85 63.5t-119 23.5q-59 0 -109.5 -22.5t-86 -61.5t-55 -90 t-19.5 -109v-563q0 -10 -11 -10h-24q-12 0 -13 10z" />
<glyph unicode="o" horiz-adv-x="835" d="M102 307v275q0 70 22.5 127t64.5 99t101.5 65.5t131.5 23.5q147 0 231 -86t84 -231v-269q0 -154 -82 -237.5t-233 -83.5q-158 0 -239 88t-81 229zM147 309q0 -131 72 -205.5t205 -74.5t200.5 74.5t67.5 209.5v265q0 121 -67.5 199.5t-202.5 78.5q-59 0 -109.5 -21.5 t-87.5 -58.5t-57.5 -87t-20.5 -109v-271z" />
<glyph unicode="p" horiz-adv-x="841" d="M113 -358v1235q0 10 12 10h25q10 0 10 -10v-93q0 -20 14 -4q41 57 112.5 87t147.5 30t135.5 -23.5t98.5 -65.5t59.5 -99.5t20.5 -122.5v-262q0 -57 -15.5 -117t-52.5 -108t-97.5 -78.5t-148.5 -30.5q-78 0 -145.5 29.5t-114.5 93.5q-14 20 -14 -7v-464q0 -10 -10 -11h-25 q-12 0 -12 11zM158 313q0 -57 20.5 -108t56 -90t86 -61.5t109.5 -22.5q68 0 119 22.5t85 61.5t51 91t17 111v263q0 127 -70.5 202.5t-201.5 75.5q-61 0 -111.5 -20.5t-86 -56.5t-55 -86t-19.5 -109v-273z" />
<glyph unicode="q" horiz-adv-x="821" d="M78 324v262q0 66 20.5 123t59.5 99t97 65.5t136 23.5q76 0 147.5 -28.5t112.5 -86.5q14 -16 15 4v91q0 10 10 10h24q12 0 13 -10v-1235q0 -10 -13 -11h-24q-10 0 -10 11v462q0 27 -15 7q-47 -63 -114.5 -92t-145.5 -29q-90 0 -149.5 30.5t-96 78.5t-52 107.5t-15.5 117.5 zM123 317q0 -55 17.5 -107t51 -92t85 -63.5t118.5 -23.5q59 0 109.5 22.5t86.5 61.5t56.5 90t20.5 108v273q0 59 -19.5 109t-55.5 86t-86 56.5t-112 20.5q-131 0 -201.5 -75.5t-70.5 -202.5v-263z" />
<glyph unicode="r" horiz-adv-x="483" d="M113 10v867q0 10 12 10h25q10 0 10 -10v-101q0 -25 14 -4q37 55 94.5 92t126.5 37h29.5t30.5 -4q14 -2 12 -14l-8 -29q-2 -14 -21 -10q-10 2 -23.5 3t-23.5 1q-104 0 -167.5 -78t-63.5 -197v-563q0 -10 -10 -10h-25q-12 0 -12 10z" />
<glyph unicode="s" horiz-adv-x="651" d="M39 131q-3 4 -3 8q0 6 9 11l16 8q12 8 17 -6q33 -53 98.5 -89t136.5 -36q111 0 176.5 49t65.5 137q0 49 -21.5 85t-53 61.5t-70.5 43t-74 29.5q-43 16 -92 35.5t-90 47.5t-68 68t-27 95t23.5 96t61.5 68.5t85 41t95 13.5q80 0 145.5 -25.5t105.5 -66.5q10 -10 3 -19 l-17 -18q-10 -6 -18 2q-39 39 -98.5 62.5t-120.5 23.5q-25 0 -63 -8t-71.5 -28.5t-58.5 -54.5t-25 -85q0 -49 27 -83t67 -58.5t85 -42t82 -29.5q45 -16 88 -37.5t75.5 -51.5t52 -70t19.5 -95q0 -41 -16.5 -81t-50 -71.5t-88 -52t-130.5 -20.5q-82 0 -159.5 35.5 t-118.5 107.5z" />
<glyph unicode="t" horiz-adv-x="542" d="M37 858v19q0 10 10 10h129q10 2 10 14v227q0 8 13 13l24 6h3q7 0 7 -10v-236q0 -12 9 -14h247q10 0 11 -10v-19q0 -12 -11 -12h-243q-12 0 -13 -17v-593q0 -113 38 -159t118 -46q31 0 71 5t62 13q10 2 15 -10l4 -19q2 -10 -6 -12q-29 -10 -77 -14t-77 -4q-61 0 -99 19.5 t-59.5 52t-29 76.5t-7.5 93v598q0 16 -14 17h-125q-10 0 -10 12z" />
<glyph unicode="u" horiz-adv-x="845" d="M106 324v553q0 10 11 10h24q12 0 13 -10v-560q0 -55 17 -107t51 -91t85 -62.5t119 -23.5q59 0 109.5 22.5t86 60.5t55 89t19.5 108v564q0 10 11 10h24q12 0 12 -10v-867q0 -10 -12 -10h-24q-10 0 -11 10v99q0 27 -14 6q-47 -61 -114.5 -93t-145.5 -32q-90 0 -150.5 29.5 t-97.5 77.5t-52.5 107.5t-15.5 119.5z" />
<glyph unicode="v" horiz-adv-x="724" d="M23 874q-1 3 -1 5q0 7 11 8h20q10 0 13.5 -3t7.5 -14l184 -524l98 -285q6 -16 13 0l96 283l184 526q4 10 7 13.5t14 3.5h20q11 0 11 -5q0 -3 -1 -8l-307 -860q-4 -14 -16 -14h-25q-12 0 -15 1t-7 11z" />
<glyph unicode="w" horiz-adv-x="1114" d="M20 874q-1 3 -1 5q0 8 12 8h16q16 0 21 -17l135 -524l71 -291q4 -10 7.5 -9t5.5 9l80 279l159 536q4 10 6.5 13.5t12.5 3.5h22q10 0 12.5 -3t6.5 -14l166 -538l79 -271q4 -10 7.5 -9t5.5 9l67 269l140 540q4 16 20 17h14q9 0 11 -3q1 -1 1 -3q0 -3 -1 -7l-226 -860 q-4 -14 -16 -14h-27q-12 0 -15 1t-7 11l-168 543l-78 256q0 4 -3 6t-5 -6l-74 -260l-164 -537q-4 -14 -16 -14h-27q-12 0 -15 1t-7 11z" />
<glyph unicode="x" horiz-adv-x="665" d="M16 12l275 437q8 12 9 18t-9 20l-242 387q-8 12 8 13h23q10 0 15 -2t11 -13l220 -354q4 -10 12 2l219 352q6 10 11 12.5t16 2.5h22q16 0 8 -13l-243 -391q-8 -12 -6 -18t6 -12l278 -441q3 -4 3 -7q0 -5 -11 -5h-23q-16 0 -26 14l-252 404q-8 14 -16 0l-250 -404 q-10 -14 -27 -14h-22q-11 0 -11 6q0 2 2 6z" />
<glyph unicode="y" horiz-adv-x="688" d="M8 877q-2 10 10 10h25q8 0 12 -10l275 -826q2 -6 5 -7t7 7l281 826q4 10 12 10h24q12 0 11 -10l-418 -1242q-2 -10 -14 -10h-25q-8 0 -8 10l119 359v2q0 4 -5 4h-8q-12 0 -14 10z" />
<glyph unicode="z" horiz-adv-x="628" d="M37 12v17q0 14 4 22l491 783q8 12 -8 12h-458q-14 0 -15 12v16q0 12 12 13h515q12 0 12 -13v-16q0 -14 -4 -22l-492 -783q-8 -12 8 -12h494q14 0 14 -12v-17q0 -12 -12 -12h-549q-12 0 -12 12z" />
<glyph unicode="{" horiz-adv-x="579" d="M94 549v22q0 10 4 13.5t8 5.5q96 41 124 111.5t28 160.5v283q0 137 49 198.5t178 59.5h37q10 0 10 -12v-17q0 -10 -10 -10h-47q-96 0 -136 -47t-40 -154v-338q0 -35 -9 -74.5t-27.5 -75.5t-47.5 -64.5t-70 -43.5q-16 -6 0 -10q76 -27 115 -97.5t39 -172.5v-350 q0 -106 40 -153.5t136 -47.5h47q10 0 10 -10v-17q0 -12 -10 -12h-37q-129 -2 -178 59.5t-49 198.5v307q0 43 -5 84t-20.5 76t-44 63.5t-77.5 46.5q-16 6 -17 17z" />
<glyph unicode="|" horiz-adv-x="372" d="M160 -217v1587q0 10 12 10h25q10 0 10 -10v-1587q0 -10 -10 -10h-25q-12 0 -12 10z" />
<glyph unicode="}" horiz-adv-x="579" d="M72 -274q0 10 10 10h47q96 0 136 47t40 154v358q0 102 39 173t115 97q16 4 0 10q-41 14 -70 43t-47 65t-27.5 76t-9.5 75v329q0 106 -40 153.5t-136 47.5h-47q-10 0 -10 10v17q0 12 10 12h37q129 2 178 -59.5t49 -198.5v-275q0 -90 27.5 -160.5t124.5 -111.5q4 -2 8 -5 t4 -13v-23q0 -10 -16 -16q-49 -18 -78 -47t-44.5 -64t-20.5 -76t-5 -84v-315q0 -137 -49 -198.5t-178 -59.5h-37q-10 0 -10 12v17z" />
<glyph unicode="~" d="M37 575q37 55 93 84t116 29q51 0 100 -22.5t96 -49t94.5 -49t94.5 -22.5q51 0 94 31.5t72 70.5q6 10 10 10t8 -2l25 -18q8 -6 2 -16q-37 -63 -93.5 -96t-115.5 -33t-112.5 20t-100.5 47q-39 23 -87 48.5t-91 25.5q-45 0 -88 -23.5t-76 -68.5q-6 -8 -11.5 -5t-9.5 7 l-16 12q-12 8 -4 20z" />
<glyph unicode="&#xa1;" horiz-adv-x="487" d="M197 836q0 23 14 37t37 14t37 -14.5t14 -36.5q0 -20 -14.5 -35t-36.5 -15q-23 0 -37 13.5t-14 36.5zM223 -371l8 975q0 12 11 12h12q12 0 12 -12l17 -975q0 -6 -2 -10t-13 -4h-30q-14 0 -15 14z" />
<glyph unicode="&#xa2;" d="M147 307v275q0 127 75 212t196 101q6 0 6 10v148q0 12 12 12h23q12 0 12 -12v-146q0 -10 10 -10q162 -4 242 -113q8 -10 0 -16l-23 -16q-8 -8 -16 2q-41 55 -102 77.5t-133 22.5q-59 0 -106.5 -22.5t-80.5 -60.5t-51 -88t-18 -103v-271q0 -119 64.5 -198.5t186.5 -79.5 q78 0 134.5 21.5t103.5 72.5q12 14 20 8l21 -10q8 -4 7 -9t-3 -10q-82 -111 -250 -114q-6 0 -6 -6v-166q0 -10 -8 -11h-29q-10 0 -10 11v168q0 6 -8 6q-135 10 -202 99t-67 216z" />
<glyph unicode="&#xa3;" d="M68 633v20q0 12 10 13h106q4 0 9 6v301q0 63 24.5 119.5t68.5 97.5t105.5 64.5t136.5 23.5q88 0 161 -30.5t116 -86.5q10 -10 0 -18l-17 -13q-14 -10 -22 5q-37 47 -100.5 73.5t-137.5 26.5q-61 0 -114.5 -19.5t-91 -54.5t-60 -84t-22.5 -108v-293q0 -10 8 -10h278 q10 0 11 -13v-20q0 -12 -11 -12h-278q-8 0 -8 -11v-241q0 -90 -7.5 -171t-62.5 -141q-10 -12 8 -12h567q10 0 11.5 -4t1.5 -8v-21q0 -12 -10 -12h-664q-12 0 -12 12v19q0 12 6 14t16 8q47 33 73 95.5t26 189.5v276q-4 6 -11 7h-104q-10 0 -10 12z" />
<glyph unicode="&#xa4;" horiz-adv-x="993" d="M168 214q0 5 4 9l90 90q10 10 5 22.5t-9 20.5q-47 66 -47 154q0 96 57 170q14 16 2 25l-100 102q-6 6 0 14l23 23q4 4 12 -2l98 -101q4 -4 12.5 -6t12.5 2q70 51 161 51q47 0 89.5 -14t76.5 -41q16 -10 31 0l98 101q6 6 15 0l20 -21q6 -6 0 -14l-104 -105q-8 -8 -6 -14 t6 -10q25 -35 39 -75t14 -85q0 -86 -49 -158q-8 -14 -2 -22l100 -101q6 -8 0 -14l-18 -16q-4 -4 -8.5 -6.5t-8.5 2.5l-98 96l-9 6t-11 -4q-35 -29 -80 -45.5t-95 -16.5q-81 0 -153 45q-10 6 -18.5 10.5t-18.5 -7.5l-92 -91q-4 -6 -9 -4t-10 6l-16 15q-4 4 -4 9zM254 510 q0 -49 18.5 -91t51 -75t74.5 -51.5t91 -18.5t93.5 18.5t76 51.5t50 75t18.5 91t-18.5 93t-50 76t-75.5 50.5t-94 18.5q-49 0 -91 -18.5t-74.5 -50.5t-51 -76t-18.5 -93z" />
<glyph unicode="&#xa5;" d="M87 1262.5q3 1.5 9 1.5h29q6 0 8 -4.5t6 -8.5l297 -579q4 -8 8 0l295 579q4 8 6.5 10.5t10.5 2.5h28q14 0 7 -17l-312 -604q-4 -8 -6 -15l-4 -14q-4 -16 14 -16h291q10 0 10 -10v-17q0 -12 -10 -12h-653q-10 0 -10 12v17q0 10 10 10h278q16 0 13 14q0 6 -4 15l-320 624 q-4 10 -1 11.5zM111 444v17q0 10 10 10h653q10 0 10 -10v-17q0 -12 -10 -12h-291q-8 0 -13 -3t-5 -15v-404q0 -10 -10 -10h-25q-12 0 -12 10v404q0 6 -2 12t-13 6h-282q-10 0 -10 12z" />
<glyph unicode="&#xa6;" horiz-adv-x="372" d="M160 -217v754q0 10 12 10h25q10 0 10 -10v-754q0 -10 -10 -10h-25q-12 0 -12 10zM160 616v754q0 10 12 10h25q10 0 10 -10v-754q0 -10 -10 -10h-25q-12 0 -12 10z" />
<glyph unicode="&#xa7;" horiz-adv-x="790" d="M123 -27l16 19q10 6 19 -2q39 -39 102 -64.5t135 -25.5q43 0 88 11t82 34.5t60.5 60.5t23.5 88q0 45 -20.5 79t-57 59.5t-85 46t-103.5 40.5q-111 41 -184.5 97.5t-73.5 142.5q0 72 46 126t126 77q4 2 9 2t9 -10l4 -13q4 -10 -3 -13t-11 -5q-66 -20 -101.5 -63.5 t-35.5 -94.5q0 -57 52 -108t175 -99q61 -20 114.5 -42.5t94.5 -53.5t64.5 -70.5t23.5 -95.5q0 -55 -23.5 -99t-64.5 -75t-96 -46t-117 -15q-86 0 -155.5 26.5t-110.5 67.5q-10 10 -2 18zM141 1096q0 94 72 155.5t205 61.5q76 0 138 -26.5t103 -67.5q10 -10 3 -19l-17 -16 q-4 -4 -9 -4t-9 4q-39 39 -95.5 64.5t-115.5 25.5q-106 0 -169 -52.5t-63 -119.5q0 -55 47.5 -108.5t169.5 -98.5q59 -20 111.5 -44t92.5 -53.5t62.5 -69.5t22.5 -95q0 -76 -38 -126t-97 -79q-4 -2 -10 -2t-10 10l-7 13q-4 10 3.5 14t11.5 8q45 23 74.5 61.5t29.5 98.5 q0 45 -19.5 78.5t-55 59.5t-83 46.5t-102.5 40.5q-111 41 -178.5 97.5t-67.5 142.5z" />
<glyph unicode="&#xa8;" horiz-adv-x="784" d="M223 1165q0 18 12.5 30.5t28.5 12.5t28.5 -11.5t12.5 -31.5q0 -18 -12 -30.5t-29 -12.5q-16 0 -28.5 13.5t-12.5 29.5zM528 1165q0 18 12.5 30.5t28.5 12.5t29.5 -12.5t13.5 -30.5q0 -16 -13 -29.5t-30 -13.5q-16 0 -28.5 13.5t-12.5 29.5z" />
<glyph unicode="&#xa9;" horiz-adv-x="1427" d="M135 485v293q0 111 42 201t118 152.5t183.5 97.5t238.5 35t239.5 -33t185.5 -95.5t120 -152.5t43 -205v-293q0 -115 -43 -205t-120 -152t-185.5 -95t-239.5 -33t-238.5 35t-183.5 97.5t-118 152.5t-42 200zM168 479q0 -90 36 -172t104.5 -143.5t171 -97t235.5 -35.5 q131 0 234.5 34.5t175 96t109.5 143.5t38 174v305q0 94 -38 177t-109.5 142.5t-175 94.5t-234.5 35q-133 0 -235.5 -36t-171 -96.5t-104.5 -142t-36 -174.5v-305zM463 514v201q0 53 19.5 99t54 80t83 53.5t107.5 19.5q72 0 129 -26t92 -71q6 -12 -2 -16l-12 -8 q-10 -10 -19 2q-29 39 -79 61.5t-109 22.5q-49 0 -90 -16.5t-71.5 -45t-48 -69.5t-17.5 -90v-193q0 -49 18.5 -90t49 -71.5t72.5 -47t89 -16.5q53 0 104.5 21.5t81.5 62.5q10 12 12.5 12t8.5 -4l12 -8q10 -6 9 -10.5t-5 -10.5q-35 -47 -92 -71.5t-131 -24.5 q-121 0 -193.5 69.5t-72.5 184.5z" />
<glyph unicode="&#xaa;" horiz-adv-x="450" d="M27 924q0 74 50 126t136 52q94 0 141 -68q6 -6 8 0v66q0 25 -7 51.5t-25.5 49t-49 36.5t-75.5 14q-29 0 -61.5 -6t-57.5 -16q-4 -2 -9 -3t-9 7l-5 10q-6 12 9 19q29 14 63.5 20t69.5 6q100 0 149 -53t49 -133v-332q0 -12 -10 -12h-18q-12 0 -13 12v41q0 10 -6 4 q-23 -29 -59.5 -46t-83.5 -17q-78 0 -132 48t-54 124zM63 926q0 -55 43.5 -97.5t106.5 -42.5q61 0 104 42.5t43 97.5q0 57 -43 99t-104 42t-105.5 -42t-44.5 -99z" />
<glyph unicode="&#xab;" horiz-adv-x="882" d="M164 387q-10 14 0 27l268 325q6 8 9 9.5t14 1.5h28q16 0 6 -15l-270 -327q-4 -6 -4 -8.5t4 -6.5l270 -338q6 -8 3 -11t-9 -3h-28h-11.5t-11.5 8zM430 387q-10 14 0 27l268 325q6 8 9.5 9.5t13.5 1.5h29q16 0 6 -15l-271 -327q-4 -6 -4 -8.5t4 -6.5l271 -338q6 -8 3 -11 t-9 -3h-29h-11t-12 8z" />
<glyph unicode="&#xac;" d="M57 471v27q0 12 11 12h743q10 0 10 -12v-404q0 -10 -12 -10h-27q-10 0 -10 10v350q0 8 -2 12.5t-14 4.5h-688q-10 0 -11 10z" />
<glyph unicode="&#xad;" horiz-adv-x="569" d="M127 471v35q0 12 10 12h299q10 0 10 -12v-35q0 -10 -10 -10h-299q-10 0 -10 10z" />
<glyph unicode="&#xae;" horiz-adv-x="817" d="M90 893v164q0 113 82 189.5t234 76.5q147 0 232 -74.5t85 -191.5v-164q0 -115 -75.5 -190.5t-241.5 -75.5q-76 0 -134.5 20.5t-98.5 57t-61.5 85t-21.5 103.5zM119 895q0 -109 75.5 -174.5t211.5 -65.5q135 0 211.5 64.5t76.5 175.5v160q0 111 -76.5 174t-211.5 63 t-211 -65.5t-76 -171.5v-160zM301 797v354q0 4 3 8t11 4h107q55 0 85 -30.5t30 -75.5q0 -31 -17.5 -56.5t-44.5 -35.5q-6 -4 -11 -9.5t-1 -13.5l2 -4l70 -139q4 -4 4 -9.5t-9 -5.5h-18q-6 0 -10 13q-10 18 -23.5 43.5t-23.5 48.5q-14 27 -27 57q-6 10 -18 10h-66 q-12 0 -12 -10v-149q0 -12 -8 -13h-11q-12 0 -12 13zM332 991q0 -10 12 -10h80q35 0 57.5 21.5t22.5 56.5q0 33 -22.5 54.5t-57.5 21.5h-80q-12 0 -12 -9v-135z" />
<glyph unicode="&#xaf;" horiz-adv-x="727" d="M197 1114v21q0 12 10 12h340q10 0 10 -12v-21q0 -10 -10 -10h-340q-10 0 -10 10z" />
<glyph unicode="&#xb0;" horiz-adv-x="618" d="M115 1087q0 80 55 134.5t137 54.5q102 0 152.5 -54.5t50.5 -134.5q0 -78 -58.5 -132t-142.5 -54t-139 53.5t-55 132.5zM154 1087q0 -63 43 -108t110 -45q66 0 115 43t49 110q0 66 -45 111t-119 45q-63 0 -108 -44t-45 -112z" />
<glyph unicode="&#xb1;" d="M41 111v24q0 12 10 12h778q10 0 11 -12v-24q0 -10 -11 -11h-778q-10 0 -10 11zM61 664v26q0 12 11 12h329q10 0 11 15v354q0 10 12 10h27q10 0 10 -10v-356q0 -12 14 -13h338q12 0 12 -12v-26q0 -10 -12 -11h-338q-14 0 -14 -12v-354q0 -10 -10 -11h-27q-12 0 -12 11v354 q0 12 -15 12h-325q-10 0 -11 11z" />
<glyph unicode="&#xb2;" horiz-adv-x="573" d="M41 692v13q0 14 6 20l307 371q55 68 72.5 106.5t17.5 75.5q0 59 -42 95t-130 36q-47 0 -88 -18.5t-67 -40.5q-12 -12 -21 -4l-14 14q-8 6 0 14q35 37 88 56.5t109 19.5q92 0 151 -42t59 -126q0 -12 -2 -29.5t-11 -42t-29.5 -59.5t-59.5 -80l-285 -344q-2 -2 -2 -6t6 -4 h365q12 0 14 -4t2 -8v-13q0 -14 -14 -14h-418q-14 0 -14 14z" />
<glyph unicode="&#xb3;" horiz-adv-x="573" d="M63 758l17 14q8 6 18 -4q23 -29 65 -46t83 -17q90 0 134 45t44 120v66q0 61 -38 101t-114 40h-90q-10 0 -10 8v21q0 10 10 10h90q61 0 107.5 41t46.5 107q0 59 -44 104t-126 45q-47 0 -88 -15.5t-64 -43.5q-10 -12 -22 -4l-12 10q-12 8 2 20q31 33 78 52.5t106 19.5 q98 0 155.5 -50t57.5 -138q0 -59 -31.5 -103.5t-64.5 -64.5q-6 -4 0 -6q53 -16 73.5 -60.5t20.5 -89.5v-63q0 -98 -57.5 -153.5t-163.5 -55.5q-61 0 -106.5 19.5t-73.5 51.5q-8 12 -3 19z" />
<glyph unicode="&#xb4;" horiz-adv-x="788" d="M352 1036l133 254q6 14 25 6l31 -14q12 -6 13 -13t-3 -12l-166 -239q-8 -14 -18 -6l-11 6q-10 6 -4 18z" />
<glyph unicode="&#xb6;" horiz-adv-x="780" d="M82 979q0 63 23.5 119.5t64.5 98.5t98.5 66.5t122.5 24.5h150q10 0 10 -10v-596q0 -10 -10 -10h-150q-68 0 -124 23.5t-98 65.5t-64.5 97t-22.5 121zM346 -188q0 10 8 10q94 12 146.5 36.5t78 60.5t31.5 82t6 99v1178q0 10 11 10h20q10 0 10 -10v-1169q0 -74 -9 -129.5 t-39.5 -95.5t-89 -65.5t-157.5 -37.5q-12 0 -12 8z" />
<glyph unicode="&#xb7;" horiz-adv-x="288" d="M94 481q0 20 14.5 34.5t34.5 14.5q25 0 39.5 -13t14.5 -36t-14.5 -37t-39.5 -14q-20 0 -34.5 15.5t-14.5 35.5z" />
<glyph unicode="&#xb8;" horiz-adv-x="727" d="M287 -336l8 12q4 10 12 2q27 -16 56.5 -25t58.5 -9q137 0 137 100q0 31 -22.5 63.5t-94.5 32.5h-73q-10 0 -17.5 4t-3.5 21l37 135q2 4 3 8t7 4h23q6 0 5 -4t-1 -6l-27 -106q-6 -18 13 -19h26q74 0 120 -33.5t46 -99.5q0 -59 -47 -96t-125 -37q-35 0 -78 12t-63 29 q-6 6 0 12z" />
<glyph unicode="&#xb9;" horiz-adv-x="440" d="M78 1323v20q0 10 2 12.5t14 8.5l137 78q8 4 19 4h10q12 0 12 -12v-744q0 -12 -12 -12h-18q-12 0 -13 12v686q0 14 -12 8l-127 -69q-12 -6 -12 8z" />
<glyph unicode="&#xba;" horiz-adv-x="518" d="M59 940v160q0 82 55.5 134t147.5 52t145.5 -51t53.5 -137v-156q0 -90 -52.5 -140t-146.5 -50q-100 0 -151.5 52t-51.5 136zM100 942q0 -72 45 -114t117 -42q76 0 118 42t42 116v154q0 66 -44 108.5t-116 42.5t-117 -43t-45 -108v-156z" />
<glyph unicode="&#xbb;" horiz-adv-x="882" d="M138 44q-3 3 3 11l271 338q4 4 4 6t-4 9l-271 327q-10 14 6 15h29q10 0 13.5 -1t9.5 -10l268 -325q10 -12 0 -27l-268 -338q-6 -8 -11.5 -8h-11.5h-29q-6 0 -9 3zM404.5 44q-3.5 3 3.5 11l270 338q4 4 4 6t-4 9l-270 327q-10 14 6 15h28q10 0 13.5 -1t9.5 -10l268 -325 q10 -12 0 -27l-268 -338q-6 -8 -11 -8h-12h-28q-6 0 -9.5 3z" />
<glyph unicode="&#xbc;" horiz-adv-x="1269" d="M123 1139v20q0 10 2 12.5t14 8.5l137 77q8 4 19 5h10q12 0 12 -13v-743q0 -12 -12 -12h-18q-12 0 -13 12v686q0 14 -12 8l-127 -70q-12 -6 -12 9zM244 -51l585 1366q4 10 13 10h20q12 0 8 -10l-585 -1366q-4 -10 -15 -10h-18q-14 0 -8 10zM618 211v14q0 6 1.5 11.5 t5.5 13.5l317 514l6 6t15 2h20q12 0 6 -10l-319 -518q-4 -8 6 -8h295q6 0 6 4v278q0 14 10 14h19q10 0 10 -14v-278q0 -4 4 -4h119q8 0 8 -9v-22q0 -8 -8 -8h-119q-4 0 -4 -7v-176q0 -12 -10 -12h-19q-10 0 -10 10v178q0 6 -6 7h-334q-18 0 -19 14z" />
<glyph unicode="&#xbd;" horiz-adv-x="1269" d="M123 1139v20q0 10 2 12.5t14 8.5l137 77q8 4 19 5h10q12 0 12 -13v-743q0 -12 -12 -12h-18q-12 0 -13 12v686q0 14 -12 8l-127 -70q-12 -6 -12 9zM225 -51l586 1366q4 10 12 10h21q12 0 8 -10l-586 -1366q-4 -10 -14 -10h-19q-14 0 -8 10zM684 14v13q0 14 6 20l307 371 q55 68 72.5 106.5t17.5 75.5q0 59 -41.5 95t-130.5 36q-47 0 -88 -18.5t-67 -40.5q-12 -12 -21 -4l-14 14q-8 6 0 14q35 37 88 56.5t109 19.5q92 0 151.5 -42t59.5 -126q0 -12 -2.5 -29.5t-11.5 -42t-29.5 -59.5t-59.5 -80l-285 -344q-2 -2 -2 -6t7 -4h364q12 0 14 -4t2 -8 v-13q0 -14 -14 -14h-418q-14 0 -14 14z" />
<glyph unicode="&#xbe;" horiz-adv-x="1269" d="M80 573l16 15q8 6 19 -4q23 -29 64.5 -46.5t82.5 -17.5q90 0 134 45t44 121v66q0 61 -37.5 101t-113.5 40h-90q-10 0 -11 8v21q0 10 11 10h90q61 0 107 41t46 106q0 59 -44 104.5t-126 45.5q-47 0 -88 -15.5t-63 -44.5q-10 -12 -23 -4l-12 11q-12 8 2 20q31 33 78 52.5 t106 19.5q98 0 155.5 -50.5t57.5 -138.5q0 -59 -31.5 -103t-64.5 -65q-6 -4 0 -6q53 -16 73.5 -60t20.5 -89v-64q0 -98 -57 -153.5t-164 -55.5q-61 0 -106 19.5t-74 52.5q-8 12 -2 18zM334 -51l586 1366q4 10 12 10h20q12 0 9 -10l-586 -1366q-4 -10 -15 -10h-18 q-14 0 -8 10zM666 211v14q0 6 1 11.5t5 13.5l317 514l6 6t15 2h20q12 0 6 -10l-319 -518q-4 -8 6 -8h295q6 0 6 4v278q0 14 10 14h19q10 0 10 -14v-278q0 -4 4 -4h119q8 0 8 -9v-22q0 -8 -8 -8h-119q-4 0 -4 -7v-176q0 -12 -10 -12h-19q-10 0 -10 10v178q0 6 -6 7h-334 q-18 0 -18 14z" />
<glyph unicode="&#xbf;" horiz-adv-x="856" d="M152 -106q0 76 49 157.5t157 153.5q100 63 147.5 124.5t47.5 157.5v121q0 10 10 10h25q12 0 12 -10v-125q0 -76 -35 -144.5t-110 -117.5q-47 -31 -92.5 -64.5t-81 -72.5t-58 -86t-22.5 -104q0 -33 10 -76t40 -82t81 -65.5t131 -26.5q76 0 139.5 26.5t99.5 73.5q8 14 23 4 l16 -12q10 -8 0 -19q-43 -55 -116.5 -85.5t-165.5 -30.5q-66 0 -122 19.5t-97 56t-64.5 91t-23.5 126.5zM528 838q0 23 14.5 37t37.5 14t37 -14.5t14 -36.5q0 -20 -14.5 -35t-36.5 -15q-23 0 -37.5 13.5t-14.5 36.5z" />
<glyph unicode="&#xc0;" horiz-adv-x="899" d="M21.5 1q-3.5 1 1.5 11l385 1241q4 10 10 11h55q12 0 14 -11l387 -1237q6 -16 -6 -16h-28q-8 0 -10.5 1t-6.5 11l-98 314q-2 8 -6 9t-8 1h-529q-8 0 -10 -8l-96 -316q-4 -12 -15 -12h-30q-6 0 -9.5 1zM192 380q3 -1 7 -1h499q10 0 9 10l-170 549l-86 274q-4 16 -9 0 l-86 -282l-163 -539q-4 -10 -1 -11zM204 1497q-3 6 7 16l25 25q12 14 24 4l215 -190q12 -10 2 -21l-6 -8q-6 -8 -20 0l-240 164q-4 4 -7 10z" />
<glyph unicode="&#xc1;" horiz-adv-x="899" d="M21.5 1q-3.5 1 1.5 11l385 1241q4 10 10 11h55q12 0 14 -11l387 -1237q6 -16 -6 -16h-28q-8 0 -10.5 1t-6.5 11l-98 314q-2 8 -6 9t-8 1h-529q-8 0 -10 -8l-96 -316q-4 -12 -15 -12h-30q-6 0 -9.5 1zM192 380q3 -1 7 -1h499q10 0 9 10l-170 549l-86 274q-4 16 -9 0 l-86 -282l-163 -539q-4 -10 -1 -11zM416 1331q-10 10 4 21l215 190q12 10 24 -4l25 -25q10 -10 7 -16t-7 -10l-240 -164q-12 -8 -20 0z" />
<glyph unicode="&#xc2;" horiz-adv-x="899" d="M21.5 1q-3.5 1 1.5 11l385 1241q4 10 10 11h55q12 0 14 -11l387 -1237q6 -16 -6 -16h-28q-8 0 -10.5 1t-6.5 11l-98 314q-2 8 -6 9t-8 1h-529q-8 0 -10 -8l-96 -316q-4 -12 -15 -12h-30q-6 0 -9.5 1zM192 380q3 -1 7 -1h499q10 0 9 10l-170 549l-86 274q-4 16 -9 0 l-86 -282l-163 -539q-4 -10 -1 -11zM207 1331q-10 6 0 17l188 188q12 12 27 12h43q12 0 24 -12l191 -188q10 -10 0 -17l-10 -8q-8 -6 -17 2l-204 164q-10 6 -17 0l-199 -164q-8 -8 -16 -2z" />
<glyph unicode="&#xc3;" horiz-adv-x="899" d="M21.5 1q-3.5 1 1.5 11l385 1241q4 10 10 11h55q12 0 14 -11l387 -1237q6 -16 -6 -16h-28q-8 0 -10.5 1t-6.5 11l-98 314q-2 8 -6 9t-8 1h-529q-8 0 -10 -8l-96 -316q-4 -12 -15 -12h-30q-6 0 -9.5 1zM192 380q3 -1 7 -1h499q10 0 9 10l-170 549l-86 274q-4 16 -9 0 l-86 -282l-163 -539q-4 -10 -1 -11zM199 1421q23 41 56.5 57.5t78.5 16.5q29 0 56.5 -9t54 -20.5t52 -20.5t52.5 -9q68 0 108 55q8 10 17 6l20 -8q10 -4 4 -16q-29 -47 -69.5 -62.5t-77.5 -15.5q-31 0 -60.5 9t-57 20.5t-54.5 20.5t-55 9q-59 0 -88 -49q-8 -12 -19 -6l-16 6 q-10 4 -2 16z" />
<glyph unicode="&#xc4;" horiz-adv-x="899" d="M21.5 1q-3.5 1 1.5 11l385 1241q4 10 10 11h55q12 0 14 -11l387 -1237q6 -16 -6 -16h-28q-8 0 -10.5 1t-6.5 11l-98 314q-2 8 -6 9t-8 1h-529q-8 0 -10 -8l-96 -316q-4 -12 -15 -12h-30q-6 0 -9.5 1zM192 380q3 -1 7 -1h499q10 0 9 10l-170 549l-86 274q-4 16 -9 0 l-86 -282l-163 -539q-4 -10 -1 -11zM254 1446q0 18 13.5 30.5t29.5 12.5t27.5 -12.5t11.5 -30.5t-11.5 -30.5t-27.5 -12.5t-29.5 12t-13.5 31zM561 1446q0 18 12.5 30.5t28.5 12.5t29.5 -12.5t13.5 -30.5t-13.5 -30.5t-29.5 -12.5t-28.5 12t-12.5 31z" />
<glyph unicode="&#xc5;" horiz-adv-x="899" d="M21.5 1q-3.5 1 1.5 11l385 1241q4 10 10 11h55q12 0 14 -11l387 -1237q6 -16 -6 -16h-28q-8 0 -10.5 1t-6.5 11l-98 314q-2 8 -6 9t-8 1h-529q-8 0 -10 -8l-96 -316q-4 -12 -15 -12h-30q-6 0 -9.5 1zM192 380q3 -1 7 -1h499q10 0 9 10l-170 549l-86 274q-4 16 -9 0 l-86 -282l-163 -539q-4 -10 -1 -11zM319 1485q0 55 35 93t90 38q53 0 91 -38t38 -93t-38 -93t-91 -38q-55 0 -90 38t-35 93zM358 1485q0 -39 25 -65.5t61 -26.5q35 0 61.5 26.5t26.5 65.5t-26.5 65.5t-61.5 26.5q-37 0 -61.5 -26.5t-24.5 -65.5z" />
<glyph unicode="&#xc6;" horiz-adv-x="1273" d="M35 1q-2 1 2 11l428 1241q4 10 16 11h723q10 0 10 -13v-20q0 -10 -10 -10h-565q-14 0 -14 -11v-528q0 -6 1 -8t11 -2h469q10 0 10 -13v-20q0 -10 -10 -10h-469q-12 0 -12 -13v-563q0 -10 14 -10h565q10 0 10 -10v-21q0 -12 -10 -12h-616q-10 0 -10 12v303q0 10 -1.5 15.5 t-17.5 5.5h-352q-12 0 -14 -10l-109 -314q-4 -12 -16 -12h-27q-4 0 -6 1zM213 389q-2 -10 12 -10h332q20 0 21 20v811q0 10 -15 11h-45q-16 0 -22 -13z" />
<glyph unicode="&#xc7;" horiz-adv-x="827" d="M119 317v641q0 63 25.5 122t71.5 103t112.5 69.5t146.5 25.5q88 0 167 -30.5t122 -86.5q10 -10 0 -18l-16 -13q-14 -10 -23 5q-37 47 -106.5 73.5t-143.5 26.5q-68 0 -124 -21.5t-97 -59.5t-64.5 -89t-23.5 -111v-632q0 -59 20.5 -112.5t60.5 -93.5t97 -63.5t133 -23.5 q68 0 139.5 23.5t112.5 74.5q12 14 16.5 14t8.5 -4l10 -8q10 -8 10 -13.5t-6 -11.5q-100 -115 -281 -118l-22 -90q-6 -18 12 -19h27q74 0 120 -33.5t46 -99.5q0 -59 -47.5 -96t-124.5 -37q-35 0 -78 12t-64 29q-6 6 0 12l9 12q4 10 12 2q27 -16 56.5 -25t58.5 -9 q137 0 137 100q0 31 -22.5 63.5t-94.5 32.5h-74q-10 0 -17 4t-3 21l33 123q-80 4 -141.5 30.5t-104.5 70.5t-64.5 102.5t-21.5 125.5z" />
<glyph unicode="&#xc8;" horiz-adv-x="866" d="M127 12v1239q0 12 10 13h623q10 0 10 -13v-20q0 -10 -10 -10h-572q-14 0 -14 -11v-528q0 -6 1 -8t11 -2h510q10 0 11 -13v-20q0 -10 -11 -10h-510q-12 0 -12 -13v-563q0 -10 14 -10h607q10 0 10 -10v-21q0 -12 -10 -12h-658q-10 0 -10 12zM234.5 1497q-3.5 6 7.5 16 l24 25q12 14 25 4l215 -190q12 -10 2 -21l-6 -8q-6 -8 -21 0l-239 164q-4 4 -7.5 10z" />
<glyph unicode="&#xc9;" horiz-adv-x="866" d="M127 12v1239q0 12 10 13h623q10 0 10 -13v-20q0 -10 -10 -10h-572q-14 0 -14 -11v-528q0 -6 1 -8t11 -2h510q10 0 11 -13v-20q0 -10 -11 -10h-510q-12 0 -12 -13v-563q0 -10 14 -10h607q10 0 10 -10v-21q0 -12 -10 -12h-658q-10 0 -10 12zM350 1331q-10 10 4 21l215 190 q12 10 25 -4l24 -25q10 -10 7.5 -16t-7.5 -10l-239 -164q-12 -8 -21 0z" />
<glyph unicode="&#xca;" horiz-adv-x="866" d="M127 12v1239q0 12 10 13h623q10 0 10 -13v-20q0 -10 -10 -10h-572q-14 0 -14 -11v-528q0 -6 1 -8t11 -2h510q10 0 11 -13v-20q0 -10 -11 -10h-510q-12 0 -12 -13v-563q0 -10 14 -10h607q10 0 10 -10v-21q0 -12 -10 -12h-658q-10 0 -10 12zM213 1331q-10 6 0 17l188 188 q12 12 27 12h43q12 0 25 -12l190 -188q10 -10 0 -17l-10 -8q-8 -6 -17 2l-204 164q-10 6 -17 0l-198 -164q-8 -8 -17 -2z" />
<glyph unicode="&#xcb;" horiz-adv-x="866" d="M127 12v1239q0 12 10 13h623q10 0 10 -13v-20q0 -10 -10 -10h-572q-14 0 -14 -11v-528q0 -6 1 -8t11 -2h510q10 0 11 -13v-20q0 -10 -11 -10h-510q-12 0 -12 -13v-563q0 -10 14 -10h607q10 0 10 -10v-21q0 -12 -10 -12h-658q-10 0 -10 12zM256 1446q0 18 13.5 30.5 t29.5 12.5t27.5 -12.5t11.5 -30.5t-11.5 -30.5t-27.5 -12.5t-29.5 12t-13.5 31zM563 1446q0 18 12.5 30.5t28.5 12.5t29.5 -12.5t13.5 -30.5t-13 -30.5t-30 -12.5q-16 0 -28.5 12t-12.5 31z" />
<glyph unicode="&#xcc;" horiz-adv-x="372" d="M-77 1497q-3 6 7 16l25 25q12 14 25 4l215 -190q12 -10 2 -21l-7 -8q-6 -8 -20 0l-240 164q-4 4 -7 10zM162 10v1243q0 10 12 11h25q10 0 10 -11v-1243q0 -10 -10 -10h-25q-12 0 -12 10z" />
<glyph unicode="&#xcd;" horiz-adv-x="372" d="M162 10v1243q0 10 12 11h25q10 0 10 -11v-1243q0 -10 -10 -10h-25q-12 0 -12 10zM170 1331q-10 10 4 21l215 190q12 10 25 -4l24 -25q10 -10 7 -16t-7 -10l-239 -164q-12 -8 -21 0z" />
<glyph unicode="&#xce;" horiz-adv-x="372" d="M-51 1331q-10 6 0 17l188 188q12 12 27 12h43q12 0 24 -12l191 -188q10 -10 0 -17l-10 -8q-8 -6 -17 2l-205 164q-10 6 -16 0l-199 -164q-8 -8 -16 -2zM162 10v1243q0 10 12 11h25q10 0 10 -11v-1243q0 -10 -10 -10h-25q-12 0 -12 10z" />
<glyph unicode="&#xcf;" horiz-adv-x="372" d="M-14 1446q0 18 13 30.5t30 12.5q16 0 27.5 -12.5t11.5 -30.5t-11.5 -30.5t-27.5 -12.5t-29.5 12t-13.5 31zM162 10v1243q0 10 12 11h25q10 0 10 -11v-1243q0 -10 -10 -10h-25q-12 0 -12 10zM293 1446q0 18 12 30.5t29 12.5q16 0 29.5 -12.5t13.5 -30.5t-13.5 -30.5 t-29.5 -12.5t-28.5 12t-12.5 31z" />
<glyph unicode="&#xd0;" horiz-adv-x="909" d="M2 645v14q0 12 10 13h99q10 0 13 3t3 15v561q0 12 10 13h350q319 0 320 -310v-630q0 -154 -85 -239t-237 -85h-348q-10 0 -10 12v606q0 16 -18 17h-97q-10 0 -10 10zM174 53q0 -10 14 -10h295q125 0 200 72.5t75 208.5v614q0 57 -11.5 108.5t-41 90.5t-80 61.5 t-127.5 22.5h-310q-14 0 -14 -11v-520q0 -8 2 -13t12 -5h349q10 0 10 -13v-14q0 -10 -10 -10h-349q-14 0 -14 -17v-565z" />
<glyph unicode="&#xd1;" horiz-adv-x="995" d="M115 12v1237q0 14 14 15h33q12 0 18 -11l643 -1163q4 -6 6 -5t2 5v1161q0 12 13 13h26q10 0 11 -13v-1235q0 -16 -17 -16h-30q-12 0 -19 10l-643 1157q-4 6 -6 5t-2 -5v-1155q0 -12 -12 -12h-27q-10 0 -10 12zM250 1405q23 41 56.5 57.5t78.5 16.5q29 0 56.5 -9.5 t54 -20.5t52 -20.5t52.5 -9.5q68 0 109 56q8 10 16 6l20 -8q10 -4 5 -17q-29 -47 -70 -62.5t-78 -15.5q-31 0 -60.5 9.5t-57 20.5t-54.5 20.5t-55 9.5q-59 0 -88 -49q-8 -12 -19 -7l-16 7q-10 4 -2 16z" />
<glyph unicode="&#xd2;" horiz-adv-x="954" d="M119 338v604q0 68 24.5 129.5t70.5 107.5t111.5 72.5t149.5 26.5q86 0 153.5 -25.5t113.5 -71.5t70 -107.5t24 -131.5v-618q0 -72 -24 -134.5t-69 -107.5t-111.5 -70.5t-154.5 -25.5q-96 0 -163.5 28.5t-110.5 77.5t-63.5 112.5t-20.5 133.5zM166 342q0 -59 16.5 -115.5 t53 -100.5t96 -70.5t145.5 -26.5q150 0 230.5 82t80.5 217v610q0 57 -17 110.5t-56 94.5t-98.5 65.5t-141.5 24.5q-78 0 -135 -24.5t-96 -64.5t-58.5 -94.5t-19.5 -111.5v-596zM230.5 1503q-3.5 6 7.5 17l24 24q12 14 25 4l215 -190q12 -10 2 -21l-6 -8q-6 -8 -21 0 l-239 164q-4 4 -7.5 10z" />
<glyph unicode="&#xd3;" horiz-adv-x="954" d="M119 338v604q0 68 24.5 129.5t70.5 107.5t111.5 72.5t149.5 26.5q86 0 153.5 -25.5t113.5 -71.5t70 -107.5t24 -131.5v-618q0 -72 -24 -134.5t-69 -107.5t-111.5 -70.5t-154.5 -25.5q-96 0 -163.5 28.5t-110.5 77.5t-63.5 112.5t-20.5 133.5zM166 342q0 -59 16.5 -115.5 t53 -100.5t96 -70.5t145.5 -26.5q150 0 230.5 82t80.5 217v610q0 57 -17 110.5t-56 94.5t-98.5 65.5t-141.5 24.5q-78 0 -135 -24.5t-96 -64.5t-58.5 -94.5t-19.5 -111.5v-596zM453 1331q-10 10 4 21l215 190q12 10 24 -4l25 -25q10 -10 7 -16t-7 -10l-240 -164 q-12 -8 -20 0z" />
<glyph unicode="&#xd4;" horiz-adv-x="954" d="M119 338v604q0 68 24.5 129.5t70.5 107.5t111.5 72.5t149.5 26.5q86 0 153.5 -25.5t113.5 -71.5t70 -107.5t24 -131.5v-618q0 -72 -24 -134.5t-69 -107.5t-111.5 -70.5t-154.5 -25.5q-96 0 -163.5 28.5t-110.5 77.5t-63.5 112.5t-20.5 133.5zM166 342q0 -59 16.5 -115.5 t53 -100.5t96 -70.5t145.5 -26.5q150 0 230.5 82t80.5 217v610q0 57 -17 110.5t-56 94.5t-98.5 65.5t-141.5 24.5q-78 0 -135 -24.5t-96 -64.5t-58.5 -94.5t-19.5 -111.5v-596zM248 1331q-10 6 0 17l188 188q12 12 27 12h43q12 0 24 -12l191 -188q10 -10 0 -17l-10 -8 q-8 -6 -17 2l-205 164q-10 6 -16 0l-199 -164q-8 -8 -16 -2z" />
<glyph unicode="&#xd5;" horiz-adv-x="954" d="M119 338v604q0 68 24.5 129.5t70.5 107.5t111.5 72.5t149.5 26.5q86 0 153.5 -25.5t113.5 -71.5t70 -107.5t24 -131.5v-618q0 -72 -24 -134.5t-69 -107.5t-111.5 -70.5t-154.5 -25.5q-96 0 -163.5 28.5t-110.5 77.5t-63.5 112.5t-20.5 133.5zM166 342q0 -59 16.5 -115.5 t53 -100.5t96 -70.5t145.5 -26.5q150 0 230.5 82t80.5 217v610q0 57 -17 110.5t-56 94.5t-98.5 65.5t-141.5 24.5q-78 0 -135 -24.5t-96 -64.5t-58.5 -94.5t-19.5 -111.5v-596zM231 1425q23 41 57 57.5t79 16.5q29 0 56.5 -9t54 -20.5t52 -20.5t52.5 -9q68 0 108 55 q8 10 17 6l20 -8q10 -4 4 -16q-29 -47 -69.5 -62.5t-77.5 -15.5q-31 0 -60.5 9t-57.5 20.5t-54.5 20.5t-55.5 9q-59 0 -88 -49q-8 -12 -18 -6l-17 6q-10 4 -2 16z" />
<glyph unicode="&#xd6;" horiz-adv-x="954" d="M119 338v604q0 68 24.5 129.5t70.5 107.5t111.5 72.5t149.5 26.5q86 0 153.5 -25.5t113.5 -71.5t70 -107.5t24 -131.5v-618q0 -72 -24 -134.5t-69 -107.5t-111.5 -70.5t-154.5 -25.5q-96 0 -163.5 28.5t-110.5 77.5t-63.5 112.5t-20.5 133.5zM166 342q0 -59 16.5 -115.5 t53 -100.5t96 -70.5t145.5 -26.5q150 0 230.5 82t80.5 217v610q0 57 -17 110.5t-56 94.5t-98.5 65.5t-141.5 24.5q-78 0 -135 -24.5t-96 -64.5t-58.5 -94.5t-19.5 -111.5v-596zM291 1446q0 18 13 30.5t30 12.5q16 0 27.5 -12.5t11.5 -30.5t-11.5 -30.5t-27.5 -12.5t-29.5 12 t-13.5 31zM598 1446q0 18 12.5 30.5t28.5 12.5t29.5 -12.5t13.5 -30.5t-13.5 -30.5t-29.5 -12.5t-28.5 12t-12.5 31z" />
<glyph unicode="&#xd7;" d="M156 223q-6 6 2 15l239 239q8 12 0 21l-231 229q-8 6 0 14l20 21q6 6 15 0l231 -232q8 -8 21 2l229 230q6 6 14 0l19 -19q8 -10 2 -16l-234 -233q-6 -6 4 -17l238 -239q8 -8 0 -17l-18 -18q-8 -8 -17 0l-239 241q-10 8 -19 -2l-239 -239q-10 -6 -17 0z" />
<glyph unicode="&#xd8;" horiz-adv-x="954" d="M119 307v649q0 68 27.5 127.5t76.5 102.5t113.5 67.5t138.5 24.5q92 0 156.5 -28.5t111.5 -69.5q6 -6 11 4l49 86q4 6 8 5t8 -3l19 -8q8 -4 4 -15l-58 -104q-2 -4 -2 -7t4 -10q23 -33 36.5 -77.5t13.5 -92.5v-645q0 -72 -25 -132t-72 -103t-113.5 -67.5t-148.5 -24.5 q-158 0 -246 80q-8 6 -14 -5l-37 -67q-4 -4 -5 -6t-7 2l-21 10q-10 4 -4 14l43 80q6 8 0 21q-29 35 -48 89t-19 103zM166 311q0 -33 11.5 -75.5t29.5 -65.5q6 -10 12 0l502 954q4 6 -4 17q-39 43 -104.5 67.5t-137.5 24.5q-61 0 -117.5 -19.5t-98.5 -56.5t-67.5 -89 t-25.5 -118v-639zM248 119q2 -4 6 -10q41 -43 98.5 -62.5t124.5 -19.5q68 0 124 20.5t98 57t65.5 91t23.5 121.5v635q0 70 -26 127q-6 12 -10 6l-502 -952q-4 -10 -2 -14z" />
<glyph unicode="&#xd9;" horiz-adv-x="962" d="M123 324v929q0 10 12 11h25q10 0 10 -11v-921q0 -63 19.5 -118.5t58.5 -96.5t98.5 -64.5t138.5 -23.5q76 0 133.5 23.5t96.5 64.5t58.5 94t19.5 115v927q0 10 12 11h24q10 0 11 -11v-929q0 -74 -26 -136.5t-72 -107.5t-111.5 -69.5t-147.5 -24.5q-92 0 -159.5 26.5 t-111.5 72.5t-66.5 107.5t-22.5 131.5zM275.5 1497q-3.5 6 7.5 16l24 25q12 14 25 4l215 -190q12 -10 2 -21l-6 -8q-6 -8 -21 0l-239 164q-4 4 -7.5 10z" />
<glyph unicode="&#xda;" horiz-adv-x="962" d="M123 324v929q0 10 12 11h25q10 0 10 -11v-921q0 -63 19.5 -118.5t58.5 -96.5t98.5 -64.5t138.5 -23.5q76 0 133.5 23.5t96.5 64.5t58.5 94t19.5 115v927q0 10 12 11h24q10 0 11 -11v-929q0 -74 -26 -136.5t-72 -107.5t-111.5 -69.5t-147.5 -24.5q-92 0 -159.5 26.5 t-111.5 72.5t-66.5 107.5t-22.5 131.5zM393 1331q-10 10 4 21l215 190q12 10 25 -4l25 -25q10 -10 7 -16t-7 -10l-240 -164q-12 -8 -21 0z" />
<glyph unicode="&#xdb;" horiz-adv-x="962" d="M123 324v929q0 10 12 11h25q10 0 10 -11v-921q0 -63 19.5 -118.5t58.5 -96.5t98.5 -64.5t138.5 -23.5q76 0 133.5 23.5t96.5 64.5t58.5 94t19.5 115v927q0 10 12 11h24q10 0 11 -11v-929q0 -74 -26 -136.5t-72 -107.5t-111.5 -69.5t-147.5 -24.5q-92 0 -159.5 26.5 t-111.5 72.5t-66.5 107.5t-22.5 131.5zM252 1331q-10 6 0 17l188 188q12 12 27 12h43q12 0 25 -12l190 -188q10 -10 0 -17l-10 -8q-8 -6 -17 2l-204 164q-10 6 -17 0l-198 -164q-8 -8 -17 -2z" />
<glyph unicode="&#xdc;" horiz-adv-x="962" d="M123 324v929q0 10 12 11h25q10 0 10 -11v-921q0 -63 19.5 -118.5t58.5 -96.5t98.5 -64.5t138.5 -23.5q76 0 133.5 23.5t96.5 64.5t58.5 94t19.5 115v927q0 10 12 11h24q10 0 11 -11v-929q0 -74 -26 -136.5t-72 -107.5t-111.5 -69.5t-147.5 -24.5q-92 0 -159.5 26.5 t-111.5 72.5t-66.5 107.5t-22.5 131.5zM297 1446q0 18 13.5 30.5t29.5 12.5t27.5 -12.5t11.5 -30.5t-11.5 -30.5t-27.5 -12.5t-29.5 12t-13.5 31zM604 1446q0 18 12.5 30.5t28.5 12.5t29.5 -12.5t13.5 -30.5t-13 -30.5t-30 -12.5q-16 0 -28.5 12t-12.5 31z" />
<glyph unicode="&#xdd;" horiz-adv-x="792" d="M24 1262.5q3 1.5 9 1.5h30q6 0 8.5 -4.5t6.5 -8.5l315 -690q4 -8 8 0l316 690q4 8 6 10.5t10 2.5h29q14 0 6 -17l-338 -725q-8 -16 -8 -27.5v-21.5v-463q0 -10 -10 -10h-25q-12 0 -12 10v447q0 16 -1 28.5t-9 28.5l-340 737q-4 10 -1 11.5zM354 1331q-10 10 4 21l215 190 q12 10 25 -4l25 -25q10 -10 7 -16t-7 -10l-240 -164q-12 -8 -21 0z" />
<glyph unicode="&#xde;" horiz-adv-x="841" d="M133 10v1243q0 10 12 11h25q10 0 10 -11v-292q0 -14 15 -15h327q72 0 129.5 -23.5t97 -65.5t61 -99.5t21.5 -126.5q0 -145 -83.5 -232.5t-225.5 -87.5h-327q-14 0 -15 -14v-287q0 -10 -10 -10h-25q-12 0 -12 10zM180 371q0 -16 15 -17h327q127 0 195.5 78t68.5 199 q0 117 -70.5 194.5t-193.5 77.5h-323q-12 0 -15.5 -3t-3.5 -9v-520z" />
<glyph unicode="&#xdf;" horiz-adv-x="876" d="M131 10v971q0 63 20.5 117.5t59.5 94.5t96.5 62.5t130.5 22.5q78 0 135.5 -21.5t95.5 -59.5t56 -89t18 -111q0 -29 -9 -62.5t-27.5 -66t-46 -60.5t-64.5 -46q-8 -4 -13 -11.5t23 -17.5q39 -14 69 -42.5t50 -64.5t30.5 -77t10.5 -78v-195q0 -59 -19.5 -112t-56.5 -94 t-91 -65.5t-124 -24.5h-110h-9.5t-3.5 10v16q0 10 3 11t7 1h87q68 0 117.5 20.5t84.5 56.5t52.5 85t17.5 107v184q0 63 -22.5 111.5t-58.5 81t-77 49t-78 16.5h-20q-12 0 -12 14v15q0 10 12 10h18q18 0 53 12.5t70 39t61.5 69.5t26.5 106q0 43 -13 86t-43 77t-79 55.5 t-121 21.5q-117 0 -189.5 -68.5t-72.5 -185.5v-971q0 -10 -10 -10h-25q-10 0 -10 10z" />
<glyph unicode="&#xe0;" horiz-adv-x="727" d="M45 274q0 61 19.5 115.5t57.5 95.5t94 65.5t130 24.5q84 0 147.5 -34.5t94.5 -91.5q4 -8 7 -5.5t3 9.5v147q0 43 -9 89t-35 83t-74 60.5t-128 23.5q-51 0 -114.5 -11t-104.5 -30q-10 -8 -16 4l-8 19q-2 8 8 16q49 23 115.5 34t121.5 11q152 0 221.5 -74.5t69.5 -220.5 v-594q0 -10 -12 -10h-25q-10 0 -10 10v103q0 12 -4 12t-8 -8q-39 -59 -103.5 -93t-152.5 -34q-135 0 -210 77.5t-75 206.5zM90 276q0 -53 13.5 -98t43 -78.5t76.5 -53t115 -19.5q55 0 103 20.5t82 55t53.5 81t19.5 99.5q0 51 -18.5 98t-51 81t-79 54.5t-101.5 20.5 q-61 0 -109.5 -21.5t-81 -56.5t-49 -83t-16.5 -100zM220 1268.5q1 7.5 13 13.5l31 14q18 8 25 -6l133 -254q6 -12 -4 -18l-10 -6q-10 -6 -19 6l-166 239q-4 4 -3 11.5z" />
<glyph unicode="&#xe1;" horiz-adv-x="727" d="M45 274q0 61 19.5 115.5t57.5 95.5t94 65.5t130 24.5q84 0 147.5 -34.5t94.5 -91.5q4 -8 7 -5.5t3 9.5v147q0 43 -9 89t-35 83t-74 60.5t-128 23.5q-51 0 -114.5 -11t-104.5 -30q-10 -8 -16 4l-8 19q-2 8 8 16q49 23 115.5 34t121.5 11q152 0 221.5 -74.5t69.5 -220.5 v-594q0 -10 -12 -10h-25q-10 0 -10 10v103q0 12 -4 12t-8 -8q-39 -59 -103.5 -93t-152.5 -34q-135 0 -210 77.5t-75 206.5zM90 276q0 -53 13.5 -98t43 -78.5t76.5 -53t115 -19.5q55 0 103 20.5t82 55t53.5 81t19.5 99.5q0 51 -18.5 98t-51 81t-79 54.5t-101.5 20.5 q-61 0 -109.5 -21.5t-81 -56.5t-49 -83t-16.5 -100zM348 1036l133 254q6 14 25 6l31 -14q12 -6 13 -13t-3 -12l-166 -239q-8 -14 -19 -6l-10 6q-10 6 -4 18z" />
<glyph unicode="&#xe2;" horiz-adv-x="727" d="M45 274q0 61 19.5 115.5t57.5 95.5t94 65.5t130 24.5q84 0 147.5 -34.5t94.5 -91.5q4 -8 7 -5.5t3 9.5v147q0 43 -9 89t-35 83t-74 60.5t-128 23.5q-51 0 -114.5 -11t-104.5 -30q-10 -8 -16 4l-8 19q-2 8 8 16q49 23 115.5 34t121.5 11q152 0 221.5 -74.5t69.5 -220.5 v-594q0 -10 -12 -10h-25q-10 0 -10 10v103q0 12 -4 12t-8 -8q-39 -59 -103.5 -93t-152.5 -34q-135 0 -210 77.5t-75 206.5zM90 276q0 -53 13.5 -98t43 -78.5t76.5 -53t115 -19.5q55 0 103 20.5t82 55t53.5 81t19.5 99.5q0 51 -18.5 98t-51 81t-79 54.5t-101.5 20.5 q-61 0 -109.5 -21.5t-81 -56.5t-49 -83t-16.5 -100zM145.5 1035q-0.5 1 4.5 7l190 240q12 14 27 14h43q12 0 24 -14l191 -233q8 -10 0 -17l-11 -10q-8 -8 -16 2l-205 211q-10 10 -16 0l-199 -213q-10 -10 -16 -4l-12 10q-4 6 -4.5 7z" />
<glyph unicode="&#xe3;" horiz-adv-x="727" d="M45 274q0 61 19.5 115.5t57.5 95.5t94 65.5t130 24.5q84 0 147.5 -34.5t94.5 -91.5q4 -8 7 -5.5t3 9.5v147q0 43 -9 89t-35 83t-74 60.5t-128 23.5q-51 0 -114.5 -11t-104.5 -30q-10 -8 -16 4l-8 19q-2 8 8 16q49 23 115.5 34t121.5 11q152 0 221.5 -74.5t69.5 -220.5 v-594q0 -10 -12 -10h-25q-10 0 -10 10v103q0 12 -4 12t-8 -8q-39 -59 -103.5 -93t-152.5 -34q-135 0 -210 77.5t-75 206.5zM90 276q0 -53 13.5 -98t43 -78.5t76.5 -53t115 -19.5q55 0 103 20.5t82 55t53.5 81t19.5 99.5q0 51 -18.5 98t-51 81t-79 54.5t-101.5 20.5 q-61 0 -109.5 -21.5t-81 -56.5t-49 -83t-16.5 -100zM139 1118q23 41 56.5 57.5t78.5 16.5q29 0 56.5 -9t54.5 -20.5t52.5 -20.5t51.5 -9q68 0 109 55q8 10 16 6l21 -8q10 -4 4 -17q-29 -47 -70 -62t-77 -15q-31 0 -61 9t-57.5 20.5t-54 20.5t-55.5 9q-59 0 -88 -49 q-8 -12 -18 -6l-17 6q-10 4 -2 16z" />
<glyph unicode="&#xe4;" horiz-adv-x="727" d="M45 274q0 61 19.5 115.5t57.5 95.5t94 65.5t130 24.5q84 0 147.5 -34.5t94.5 -91.5q4 -8 7 -5.5t3 9.5v147q0 43 -9 89t-35 83t-74 60.5t-128 23.5q-51 0 -114.5 -11t-104.5 -30q-10 -8 -16 4l-8 19q-2 8 8 16q49 23 115.5 34t121.5 11q152 0 221.5 -74.5t69.5 -220.5 v-594q0 -10 -12 -10h-25q-10 0 -10 10v103q0 12 -4 12t-8 -8q-39 -59 -103.5 -93t-152.5 -34q-135 0 -210 77.5t-75 206.5zM90 276q0 -53 13.5 -98t43 -78.5t76.5 -53t115 -19.5q55 0 103 20.5t82 55t53.5 81t19.5 99.5q0 51 -18.5 98t-51 81t-79 54.5t-101.5 20.5 q-61 0 -109.5 -21.5t-81 -56.5t-49 -83t-16.5 -100zM182 1165q0 18 12.5 30.5t28.5 12.5t28.5 -11.5t12.5 -31.5q0 -18 -12 -30.5t-29 -12.5q-16 0 -28.5 13.5t-12.5 29.5zM487 1165q0 18 12.5 30.5t28.5 12.5t29.5 -12.5t13.5 -30.5q0 -16 -13 -29.5t-30 -13.5 q-16 0 -28.5 13.5t-12.5 29.5z" />
<glyph unicode="&#xe5;" horiz-adv-x="727" d="M45 274q0 61 19.5 115.5t57.5 95.5t94 65.5t130 24.5q84 0 147.5 -34.5t94.5 -91.5q4 -8 7 -5.5t3 9.5v147q0 43 -9 89t-35 83t-74 60.5t-128 23.5q-51 0 -114.5 -11t-104.5 -30q-10 -8 -16 4l-8 19q-2 8 8 16q49 23 115.5 34t121.5 11q152 0 221.5 -74.5t69.5 -220.5 v-594q0 -10 -12 -10h-25q-10 0 -10 10v103q0 12 -4 12t-8 -8q-39 -59 -103.5 -93t-152.5 -34q-135 0 -210 77.5t-75 206.5zM90 276q0 -53 13.5 -98t43 -78.5t76.5 -53t115 -19.5q55 0 103 20.5t82 55t53.5 81t19.5 99.5q0 51 -18.5 98t-51 81t-79 54.5t-101.5 20.5 q-61 0 -109.5 -21.5t-81 -56.5t-49 -83t-16.5 -100zM240 1153q0 55 34.5 93t90.5 38q53 0 91 -38t38 -93t-38 -93t-91 -38q-55 0 -90 38t-35 93zM279 1153q0 -39 24.5 -65.5t61.5 -26.5q35 0 61.5 26.5t26.5 65.5t-26.5 65.5t-61.5 26.5q-37 0 -61.5 -26.5t-24.5 -65.5z" />
<glyph unicode="&#xe6;" horiz-adv-x="1308" d="M49 281q0 61 21.5 114.5t60.5 93t92 63t119 23.5q82 0 144.5 -35.5t101.5 -95.5q4 -8 7 -5t3 10v149q0 43 -13.5 89t-45 84t-82.5 61.5t-127 23.5q-51 0 -103.5 -11t-93.5 -30q-10 -8 -16 4l-8 19q-2 8 8 16q49 23 104 34t111 11q115 0 186.5 -44t102.5 -124q6 -14 14 0 q41 82 115.5 124t167.5 42q66 0 124 -19.5t101 -59.5t68.5 -103.5t25.5 -151.5v-84q0 -29 -23 -28h-546q-20 0 -21 -21v-127q0 -119 75 -196.5t202 -77.5q72 0 127 25.5t88 72.5q10 16 20 8l19 -12q6 -6 6 -10t-2 -9q-41 -55 -108.5 -84.5t-153.5 -29.5q-104 0 -180 45 t-111 127q-2 4 -6.5 6t-8.5 -4q-18 -45 -46.5 -78t-65.5 -54.5t-78 -31.5t-82 -10q-145 0 -219 81t-74 210zM90 283q0 -104 61.5 -179t190.5 -75q51 0 98 20.5t81 54t54.5 80t20.5 99.5q0 51 -20.5 98t-54.5 81t-81 54.5t-98 20.5t-97 -20.5t-80 -54.5t-54.5 -81t-20.5 -98z M647 516q0 -23 21 -22h506q18 0 18 22v62q0 123 -75 200.5t-199 77.5q-57 0 -106.5 -20.5t-86.5 -57.5t-57.5 -87t-20.5 -109v-66z" />
<glyph unicode="&#xe7;" horiz-adv-x="727" d="M92 307v275q0 70 23.5 128t66.5 99t101.5 64.5t128.5 23.5q82 0 148.5 -29.5t107.5 -83.5q8 -10 0 -16l-21 -16q-8 -8 -16 2q-37 49 -95.5 75.5t-123.5 26.5q-61 0 -111.5 -21.5t-86.5 -58.5t-56.5 -87t-20.5 -109v-271q0 -131 75 -204.5t202 -73.5q72 0 129 23.5 t90 70.5q12 14 20 8l15 -10q12 -6 4 -19q-37 -57 -103.5 -84.5t-150.5 -29.5l-23 -94q-6 -18 13 -19h26q74 0 120 -33.5t46 -99.5q0 -59 -47 -96t-125 -37q-35 0 -78 12t-63 29q-6 6 0 12l8 12q4 10 12 2q27 -16 56.5 -25t58.5 -9q137 0 137 100q0 31 -22.5 63.5t-94.5 32.5 h-73q-10 0 -17.5 4t-3.5 21l35 127q-141 8 -216 94t-75 221z" />
<glyph unicode="&#xe8;" horiz-adv-x="804" d="M98 305v270q0 78 24.5 137.5t67.5 100.5t100.5 62.5t123.5 21.5t124 -19.5t101 -59.5t68.5 -103.5t25.5 -151.5v-84q0 -29 -22 -28h-547q-20 0 -21 -21v-127q0 -119 70 -196.5t207 -77.5q86 0 135 26.5t86 69.5q8 10 11 11t7 -3l15 -10q12 -6 4 -19q-49 -66 -112.5 -90 t-149.5 -24q-152 0 -235 86t-83 229zM143 516q0 -23 21 -22h506q18 0 18 22v62q0 123 -74.5 200.5t-199.5 77.5q-57 0 -106.5 -20.5t-86.5 -57.5t-57.5 -87t-20.5 -109v-66zM263 1268.5q1 7.5 13 13.5l31 14q18 8 25 -6l133 -254q6 -12 -4 -18l-10 -6q-10 -6 -19 6l-166 239 q-4 4 -3 11.5z" />
<glyph unicode="&#xe9;" horiz-adv-x="804" d="M98 305v270q0 78 24.5 137.5t67.5 100.5t100.5 62.5t123.5 21.5t124 -19.5t101 -59.5t68.5 -103.5t25.5 -151.5v-84q0 -29 -22 -28h-547q-20 0 -21 -21v-127q0 -119 70 -196.5t207 -77.5q86 0 135 26.5t86 69.5q8 10 11 11t7 -3l15 -10q12 -6 4 -19q-49 -66 -112.5 -90 t-149.5 -24q-152 0 -235 86t-83 229zM143 516q0 -23 21 -22h506q18 0 18 22v62q0 123 -74.5 200.5t-199.5 77.5q-57 0 -106.5 -20.5t-86.5 -57.5t-57.5 -87t-20.5 -109v-66zM373 1036l133 254q6 14 24 6l31 -14q12 -6 13 -13t-3 -12l-165 -239q-8 -14 -19 -6l-10 6 q-10 6 -4 18z" />
<glyph unicode="&#xea;" horiz-adv-x="804" d="M98 305v270q0 78 24.5 137.5t67.5 100.5t100.5 62.5t123.5 21.5t124 -19.5t101 -59.5t68.5 -103.5t25.5 -151.5v-84q0 -29 -22 -28h-547q-20 0 -21 -21v-127q0 -119 70 -196.5t207 -77.5q86 0 135 26.5t86 69.5q8 10 11 11t7 -3l15 -10q12 -6 4 -19q-49 -66 -112.5 -90 t-149.5 -24q-152 0 -235 86t-83 229zM143 516q0 -23 21 -22h506q18 0 18 22v62q0 123 -74.5 200.5t-199.5 77.5q-57 0 -106.5 -20.5t-86.5 -57.5t-57.5 -87t-20.5 -109v-66zM182 1035q0 1 4 7l191 240q12 14 26 14h43q12 0 25 -14l191 -233q8 -10 0 -17l-11 -10q-8 -8 -16 2 l-205 211q-10 10 -16 0l-199 -213q-10 -10 -16 -4l-13 10q-4 6 -4 7z" />
<glyph unicode="&#xeb;" horiz-adv-x="804" d="M98 305v270q0 78 24.5 137.5t67.5 100.5t100.5 62.5t123.5 21.5t124 -19.5t101 -59.5t68.5 -103.5t25.5 -151.5v-84q0 -29 -22 -28h-547q-20 0 -21 -21v-127q0 -119 70 -196.5t207 -77.5q86 0 135 26.5t86 69.5q8 10 11 11t7 -3l15 -10q12 -6 4 -19q-49 -66 -112.5 -90 t-149.5 -24q-152 0 -235 86t-83 229zM143 516q0 -23 21 -22h506q18 0 18 22v62q0 123 -74.5 200.5t-199.5 77.5q-57 0 -106.5 -20.5t-86.5 -57.5t-57.5 -87t-20.5 -109v-66zM229 1165q0 18 12.5 30.5t28.5 12.5t28.5 -11.5t12.5 -31.5q0 -18 -12 -30.5t-29 -12.5 q-16 0 -28.5 13.5t-12.5 29.5zM535 1165q0 18 12 30.5t28 12.5t29.5 -12.5t13.5 -30.5q0 -16 -13 -29.5t-30 -13.5q-16 0 -28 13.5t-12 29.5z" />
<glyph unicode="&#xec;" horiz-adv-x="319" d="M-11 1268.5q1 7.5 13 13.5l31 14q18 8 24 -6l133 -254q6 -12 -4 -18l-10 -6q-10 -6 -18 6l-166 239q-4 4 -3 11.5zM127 10v867q0 10 12 10h25q10 0 10 -10v-867q0 -10 -10 -10h-25q-12 0 -12 10z" />
<glyph unicode="&#xed;" horiz-adv-x="319" d="M125 1036l133 254q6 14 25 6l30 -14q12 -6 13.5 -13t-2.5 -12l-166 -239q-8 -14 -19 -6l-10 6q-10 6 -4 18zM127 10v867q0 10 12 10h25q10 0 10 -10v-867q0 -10 -10 -10h-25q-12 0 -12 10z" />
<glyph unicode="&#xee;" horiz-adv-x="319" d="M-90 1035q0 1 4 7l190 240q12 14 27 14h43q12 0 25 -14l190 -233q8 -10 0 -17l-10 -10q-8 -8 -17 2l-204 211q-10 10 -17 0l-198 -213q-10 -10 -17 -4l-12 10q-4 6 -4 7zM127 10v867q0 10 12 10h25q10 0 10 -10v-867q0 -10 -10 -10h-25q-12 0 -12 10z" />
<glyph unicode="&#xef;" horiz-adv-x="319" d="M-43 1165q0 18 12.5 30.5t28.5 12.5t28.5 -11.5t12.5 -31.5q0 -18 -12.5 -30.5t-28.5 -12.5t-28.5 13.5t-12.5 29.5zM127 10v867q0 10 12 10h25q10 0 10 -10v-867q0 -10 -10 -10h-25q-12 0 -12 10zM262 1165q0 18 12.5 30.5t28.5 12.5t29.5 -12.5t13.5 -30.5 q0 -16 -13.5 -29.5t-29.5 -13.5t-28.5 13.5t-12.5 29.5z" />
<glyph unicode="&#xf0;" horiz-adv-x="835" d="M102 307v250q0 70 22.5 127t64.5 99t101.5 65.5t131.5 23.5q94 0 160.5 -35.5t105.5 -99.5q4 -4 6 -2t2 6q0 145 -19.5 231.5t-53.5 139.5q-8 10 -17 2l-102 -98q-10 -10 -17 -4l-10 14q-10 8 0 18l105 103q6 8 0 18q-49 66 -123 90.5t-170 24.5q-10 0 -10 10v19 q0 12 12 12q113 0 190.5 -30.5t134.5 -96.5q8 -8 15 -2l90 84q6 6 10 5t8 -5l11 -12q6 -10 0 -17l-95 -86q-6 -6 -4 -10q20 -33 37 -71t28 -86t16 -110.5t5 -144.5v-428q0 -154 -81 -237.5t-234 -83.5q-160 0 -240 88t-80 229zM147 309q0 -131 77 -205.5t200 -74.5 q125 0 196.5 74.5t71.5 209.5v240q0 59 -19.5 110.5t-54 88t-85 58t-111.5 21.5q-59 0 -109.5 -21.5t-87.5 -58t-57.5 -88t-20.5 -108.5v-246z" />
<glyph unicode="&#xf1;" horiz-adv-x="839" d="M106 10v867q0 10 13 10h24q10 0 11 -10v-99q0 -27 14 -6q47 63 114.5 94t145.5 31q90 0 150.5 -29.5t97.5 -78t52 -107.5t15 -119v-553q0 -10 -10 -10h-24q-12 0 -13 10v559q0 55 -17 107.5t-51 92.5t-85 63.5t-119 23.5q-59 0 -109.5 -22.5t-86 -61.5t-55 -90 t-19.5 -109v-563q0 -10 -11 -10h-24q-12 0 -13 10zM143 1118q23 41 56.5 57.5t79.5 16.5q29 0 56 -9t54 -20.5t52.5 -20.5t52.5 -9q68 0 108 55q8 10 16 6l21 -8q10 -4 4 -17q-29 -47 -70 -62t-77 -15q-31 0 -60.5 9t-57.5 20.5t-54.5 20.5t-55.5 9q-59 0 -88 -49 q-8 -12 -18 -6l-17 6q-10 4 -2 16z" />
<glyph unicode="&#xf2;" horiz-adv-x="835" d="M102 307v275q0 70 22.5 127t64.5 99t101.5 65.5t131.5 23.5q147 0 231 -86t84 -231v-269q0 -154 -82 -237.5t-233 -83.5q-158 0 -239 88t-81 229zM147 309q0 -131 72 -205.5t205 -74.5t200.5 74.5t67.5 209.5v265q0 121 -67.5 199.5t-202.5 78.5q-59 0 -109.5 -21.5 t-87.5 -58.5t-57.5 -87t-20.5 -109v-271zM288 1268.5q1 7.5 13 13.5l31 14q18 8 24 -6l133 -254q6 -12 -4 -18l-10 -6q-10 -6 -18 6l-166 239q-4 4 -3 11.5z" />
<glyph unicode="&#xf3;" horiz-adv-x="835" d="M102 307v275q0 70 22.5 127t64.5 99t101.5 65.5t131.5 23.5q147 0 231 -86t84 -231v-269q0 -154 -82 -237.5t-233 -83.5q-158 0 -239 88t-81 229zM147 309q0 -131 72 -205.5t205 -74.5t200.5 74.5t67.5 209.5v265q0 121 -67.5 199.5t-202.5 78.5q-59 0 -109.5 -21.5 t-87.5 -58.5t-57.5 -87t-20.5 -109v-271zM371 1036l133 254q6 14 24 6l31 -14q12 -6 13 -13t-3 -12l-166 -239q-8 -14 -18 -6l-10 6q-10 6 -4 18z" />
<glyph unicode="&#xf4;" horiz-adv-x="835" d="M102 307v275q0 70 22.5 127t64.5 99t101.5 65.5t131.5 23.5q147 0 231 -86t84 -231v-269q0 -154 -82 -237.5t-233 -83.5q-158 0 -239 88t-81 229zM147 309q0 -131 72 -205.5t205 -74.5t200.5 74.5t67.5 209.5v265q0 121 -67.5 199.5t-202.5 78.5q-59 0 -109.5 -21.5 t-87.5 -58.5t-57.5 -87t-20.5 -109v-271zM184 1035q0 1 4 7l191 240q12 14 27 14h43q12 0 24 -14l191 -233q8 -10 0 -17l-11 -10q-8 -8 -16 2l-205 211q-10 10 -16 0l-199 -213q-10 -10 -16 -4l-13 10q-4 6 -4 7z" />
<glyph unicode="&#xf5;" horiz-adv-x="835" d="M102 307v275q0 70 22.5 127t64.5 99t101.5 65.5t131.5 23.5q147 0 231 -86t84 -231v-269q0 -154 -82 -237.5t-233 -83.5q-158 0 -239 88t-81 229zM147 309q0 -131 72 -205.5t205 -74.5t200.5 74.5t67.5 209.5v265q0 121 -67.5 199.5t-202.5 78.5q-59 0 -109.5 -21.5 t-87.5 -58.5t-57.5 -87t-20.5 -109v-271zM174 1118q23 41 56.5 57.5t78.5 16.5q29 0 56.5 -9t54 -20.5t52.5 -20.5t52 -9q68 0 109 55q8 10 16 6l21 -8q10 -4 4 -17q-29 -47 -70 -62t-78 -15q-31 0 -60.5 9t-57 20.5t-54 20.5t-55.5 9q-59 0 -88 -49q-8 -12 -18 -6l-17 6 q-10 4 -2 16z" />
<glyph unicode="&#xf6;" horiz-adv-x="835" d="M102 307v275q0 70 22.5 127t64.5 99t101.5 65.5t131.5 23.5q147 0 231 -86t84 -231v-269q0 -154 -82 -237.5t-233 -83.5q-158 0 -239 88t-81 229zM147 309q0 -131 72 -205.5t205 -74.5t200.5 74.5t67.5 209.5v265q0 121 -67.5 199.5t-202.5 78.5q-59 0 -109.5 -21.5 t-87.5 -58.5t-57.5 -87t-20.5 -109v-271zM231 1165q0 18 12.5 30.5t28.5 12.5t28.5 -11.5t12.5 -31.5q0 -18 -12 -30.5t-29 -12.5q-16 0 -28.5 13.5t-12.5 29.5zM537 1165q0 18 12 30.5t29 12.5q16 0 29.5 -12.5t13.5 -30.5q0 -16 -13.5 -29.5t-29.5 -13.5t-28.5 13.5 t-12.5 29.5z" />
<glyph unicode="&#xf7;" d="M57 473v21q0 12 4.5 14t18.5 2h721q12 0 16 -2t4 -14v-19q0 -10 -5 -12t-15 -2h-721q-12 0 -17.5 1t-5.5 11zM385 131q0 20 14.5 34.5t34.5 14.5q23 0 37 -13t14 -36q0 -51 -51 -51q-20 0 -34.5 14.5t-14.5 36.5zM385 827q0 20 14.5 35t34.5 15q23 0 37 -13.5t14 -36.5 q0 -51 -51 -51q-20 0 -34.5 14.5t-14.5 36.5z" />
<glyph unicode="&#xf8;" horiz-adv-x="835" d="M102 307v275q0 70 22.5 127t64.5 99t101.5 65.5t131.5 23.5q68 0 123 -20.5t96 -55.5q4 -6 10 0l56 80q4 6 8 4l8 -4l16 -8q8 -6 2 -16l-61 -89q-4 -8 -2 -10q29 -41 44 -90t15 -108v-269q0 -154 -82 -237.5t-233 -83.5q-141 0 -225 73q-6 6 -13 -2l-45 -67q-6 -6 -10 -2 l-18 12q-10 6 -2 14l51 76q4 6 0 10q-57 78 -58 203zM147 309q0 -93 41 -159q2 -6 9 0l417 616q6 8 2 12q-74 78 -194 78q-59 0 -109.5 -21.5t-87.5 -58.5t-57.5 -87t-20.5 -109v-271zM221 106q74 -78 203 -77q125 0 196.5 74.5t71.5 209.5v265q0 84 -39 151q0 2 -4 4t-8 -4 l-420 -612q-4 -6 0 -11z" />
<glyph unicode="&#xf9;" horiz-adv-x="839" d="M106 324v553q0 10 11 10h24q12 0 13 -10v-560q0 -55 17 -107t51 -91t85 -62.5t119 -23.5q59 0 109.5 22.5t86 60.5t55 89t19.5 108v564q0 10 11 10h24q12 0 12 -10v-867q0 -10 -12 -10h-24q-10 0 -11 10v99q0 27 -14 6q-47 -61 -114.5 -93t-145.5 -32q-90 0 -150.5 29.5 t-97.5 77.5t-52.5 107.5t-15.5 119.5zM286 1268.5q1 7.5 13 13.5l31 14q18 8 24 -6l133 -254q6 -12 -4 -18l-10 -6q-10 -6 -18 6l-166 239q-4 4 -3 11.5z" />
<glyph unicode="&#xfa;" horiz-adv-x="839" d="M106 324v553q0 10 11 10h24q12 0 13 -10v-560q0 -55 17 -107t51 -91t85 -62.5t119 -23.5q59 0 109.5 22.5t86 60.5t55 89t19.5 108v564q0 10 11 10h24q12 0 12 -10v-867q0 -10 -12 -10h-24q-10 0 -11 10v99q0 27 -14 6q-47 -61 -114.5 -93t-145.5 -32q-90 0 -150.5 29.5 t-97.5 77.5t-52.5 107.5t-15.5 119.5zM383 1036l133 254q6 14 25 6l30 -14q12 -6 13.5 -13t-2.5 -12l-166 -239q-8 -14 -19 -6l-10 6q-10 6 -4 18z" />
<glyph unicode="&#xfb;" horiz-adv-x="839" d="M106 324v553q0 10 11 10h24q12 0 13 -10v-560q0 -55 17 -107t51 -91t85 -62.5t119 -23.5q59 0 109.5 22.5t86 60.5t55 89t19.5 108v564q0 10 11 10h24q12 0 12 -10v-867q0 -10 -12 -10h-24q-10 0 -11 10v99q0 27 -14 6q-47 -61 -114.5 -93t-145.5 -32q-90 0 -150.5 29.5 t-97.5 77.5t-52.5 107.5t-15.5 119.5zM170 1035q0 1 4 7l191 240q12 14 26 14h43q12 0 25 -14l190 -233q8 -10 0 -17l-10 -10q-8 -8 -16 2l-205 211q-10 10 -17 0l-198 -213q-10 -10 -17 -4l-12 10q-4 6 -4 7z" />
<glyph unicode="&#xfc;" horiz-adv-x="839" d="M106 324v553q0 10 11 10h24q12 0 13 -10v-560q0 -55 17 -107t51 -91t85 -62.5t119 -23.5q59 0 109.5 22.5t86 60.5t55 89t19.5 108v564q0 10 11 10h24q12 0 12 -10v-867q0 -10 -12 -10h-24q-10 0 -11 10v99q0 27 -14 6q-47 -61 -114.5 -93t-145.5 -32q-90 0 -150.5 29.5 t-97.5 77.5t-52.5 107.5t-15.5 119.5zM244 1165q0 18 12 30.5t29 12.5q16 0 28.5 -11.5t12.5 -31.5q0 -18 -12.5 -30.5t-28.5 -12.5t-28.5 13.5t-12.5 29.5zM549 1165q0 18 12 30.5t29 12.5q16 0 29.5 -12.5t13.5 -30.5q0 -16 -13.5 -29.5t-29.5 -13.5t-28.5 13.5 t-12.5 29.5z" />
<glyph unicode="&#xfd;" horiz-adv-x="688" d="M8 877q-2 10 10 10h25q8 0 12 -10l275 -826q2 -6 5 -7t7 7l281 826q4 10 12 10h24q12 0 11 -10l-418 -1242q-2 -10 -14 -10h-25q-8 0 -8 10l119 359v2q0 4 -5 4h-8q-12 0 -14 10zM287 1036l133 254q6 14 24 6l31 -14q12 -6 13 -13t-3 -12l-166 -239q-8 -14 -18 -6l-10 6 q-10 6 -4 18z" />
<glyph unicode="&#xfe;" horiz-adv-x="841" d="M113 -358v1652q0 10 12 11h25q10 0 10 -11v-510q0 -20 14 -4q41 57 112.5 87t147.5 30t135.5 -23.5t98.5 -65.5t59.5 -99.5t20.5 -122.5v-262q0 -57 -15.5 -117t-52.5 -108t-97.5 -78.5t-148.5 -30.5q-78 0 -145.5 29.5t-114.5 93.5q-14 20 -14 -7v-464q0 -10 -10 -11 h-25q-12 0 -12 11zM158 313q0 -57 20.5 -108t56 -90t86 -61.5t109.5 -22.5q68 0 119 22.5t85 61.5t51 91t17 111v263q0 127 -70.5 202.5t-201.5 75.5q-61 0 -111.5 -20.5t-86 -56.5t-55 -86t-19.5 -109v-273z" />
<glyph unicode="&#xff;" horiz-adv-x="688" d="M8 877q-2 10 10 10h25q8 0 12 -10l275 -826q2 -6 5 -7t7 7l281 826q4 10 12 10h24q12 0 11 -10l-418 -1242q-2 -10 -14 -10h-25q-8 0 -8 10l119 359v2q0 4 -5 4h-8q-12 0 -14 10zM131 1165q0 18 12.5 30.5t28.5 12.5t28.5 -11.5t12.5 -31.5q0 -18 -12.5 -30.5 t-28.5 -12.5t-28.5 13.5t-12.5 29.5zM436 1165q0 18 12.5 30.5t28.5 12.5t29.5 -12.5t13.5 -30.5q0 -16 -13 -29.5t-30 -13.5q-16 0 -28.5 13.5t-12.5 29.5z" />
<glyph unicode="&#x152;" horiz-adv-x="1251" d="M119 293v680q0 68 24.5 124t69.5 96t106.5 62.5t135.5 22.5q31 0 58.5 -4t53.5 -10h615q10 0 10 -13v-20q0 -10 -10 -10h-566q-14 0 -14 -11v-528q0 -6 1 -8t11 -2h469q10 0 11 -13v-20q0 -10 -11 -10h-469q-12 0 -12 -13v-563q0 -10 14 -10h566q10 0 10 -10v-21 q0 -12 -10 -12h-611q-27 -6 -55.5 -10t-58.5 -4q-154 0 -246 84t-92 223zM166 297q0 -59 22.5 -108.5t61.5 -85t92.5 -56t114.5 -20.5q49 0 98 12v1182q-43 14 -100 14q-61 0 -114.5 -19.5t-91.5 -55.5t-60.5 -85t-22.5 -106v-672z" />
<glyph unicode="&#x153;" horiz-adv-x="1419" d="M102 307v275q0 70 22.5 127t64.5 99t101.5 65.5t131.5 23.5q104 0 178 -47t109 -125q4 -10 9 -7t7 7q41 86 115.5 129t167.5 43q66 0 124 -19.5t101 -59.5t68.5 -103.5t25.5 -151.5v-84q0 -29 -22 -28h-547q-20 0 -21 -21v-127q0 -119 75 -196.5t202 -77.5q72 0 127 25.5 t88 72.5q10 16 20 8l19 -12q6 -6 6 -10t-2 -9q-41 -55 -108.5 -84.5t-153.5 -29.5q-104 0 -177 43t-110 121q-4 10 -9 6t-7 -8q-35 -78 -108 -120t-177 -42q-158 0 -239 88t-81 229zM147 309q0 -131 77 -205.5t200 -74.5q125 0 196.5 74.5t71.5 209.5v265q0 59 -19.5 110 t-54 88t-85 58.5t-111.5 21.5q-59 0 -109.5 -21.5t-87.5 -58.5t-57.5 -87t-20.5 -109v-271zM737 516q0 -23 21 -22h506q18 0 18 22v62q0 123 -74.5 200.5t-199.5 77.5q-57 0 -106.5 -20.5t-86.5 -57.5t-57.5 -87t-20.5 -109v-66z" />
<glyph unicode="&#x178;" horiz-adv-x="792" d="M24 1262.5q3 1.5 9 1.5h30q6 0 8.5 -4.5t6.5 -8.5l315 -690q4 -8 8 0l316 690q4 8 6 10.5t10 2.5h29q14 0 6 -17l-338 -725q-8 -16 -8 -27.5v-21.5v-463q0 -10 -10 -10h-25q-12 0 -12 10v447q0 16 -1 28.5t-9 28.5l-340 737q-4 10 -1 11.5zM203 1446q0 18 13 30.5 t30 12.5q16 0 27.5 -12.5t11.5 -30.5t-11.5 -30.5t-27.5 -12.5t-29.5 12t-13.5 31zM510 1446q0 18 12.5 30.5t28.5 12.5t29.5 -12.5t13.5 -30.5t-13.5 -30.5t-29.5 -12.5t-28.5 12t-12.5 31z" />
<glyph unicode="&#x2c6;" horiz-adv-x="835" d="M186 1035q0 1 4 7l191 240q12 14 27 14h43q12 0 24 -14l191 -233q8 -10 0 -17l-11 -10q-8 -8 -16 2l-205 211q-10 10 -16 0l-199 -213q-10 -10 -16 -4l-13 10q-4 6 -4 7z" />
<glyph unicode="&#x2dc;" horiz-adv-x="727" d="M137 1118q23 41 56.5 57.5t78.5 16.5q29 0 56.5 -9t54.5 -20.5t52.5 -20.5t51.5 -9q68 0 109 55q8 10 16 6l21 -8q10 -4 4 -17q-29 -47 -70 -62t-78 -15q-31 0 -60.5 9t-57 20.5t-54 20.5t-55.5 9q-59 0 -88 -49q-8 -12 -18 -6l-17 6q-10 4 -2 16z" />
<glyph unicode="&#x2000;" horiz-adv-x="808" />
<glyph unicode="&#x2001;" horiz-adv-x="1616" />
<glyph unicode="&#x2002;" horiz-adv-x="808" />
<glyph unicode="&#x2003;" horiz-adv-x="1616" />
<glyph unicode="&#x2004;" horiz-adv-x="538" />
<glyph unicode="&#x2005;" horiz-adv-x="404" />
<glyph unicode="&#x2006;" horiz-adv-x="269" />
<glyph unicode="&#x2007;" horiz-adv-x="269" />
<glyph unicode="&#x2008;" horiz-adv-x="202" />
<glyph unicode="&#x2009;" horiz-adv-x="323" />
<glyph unicode="&#x200a;" horiz-adv-x="89" />
<glyph unicode="&#x2010;" horiz-adv-x="569" d="M127 471v35q0 12 10 12h299q10 0 10 -12v-35q0 -10 -10 -10h-299q-10 0 -10 10z" />
<glyph unicode="&#x2011;" horiz-adv-x="569" d="M127 471v35q0 12 10 12h299q10 0 10 -12v-35q0 -10 -10 -10h-299q-10 0 -10 10z" />
<glyph unicode="&#x2012;" horiz-adv-x="569" d="M127 471v35q0 12 10 12h299q10 0 10 -12v-35q0 -10 -10 -10h-299q-10 0 -10 10z" />
<glyph unicode="&#x2013;" horiz-adv-x="1024" d="M51 473v19q0 12 10 12h897q10 0 11 -12v-19q0 -10 -11 -10h-897q-10 0 -10 10z" />
<glyph unicode="&#x2014;" horiz-adv-x="2048" d="M51 473v19q0 12 10 12h1907q10 0 10 -12v-19q0 -10 -10 -10h-1907q-10 0 -10 10z" />
<glyph unicode="&#x2018;" horiz-adv-x="339" d="M113 985l59 297q2 14 14 14h17q10 0 10 -16l-16 -301q0 -12 -17 -12h-53q-16 0 -14 18z" />
<glyph unicode="&#x2019;" horiz-adv-x="339" d="M123 983l16 301q0 12 17 12h53q16 0 14 -18l-59 -297q-4 -14 -14 -14h-17q-10 0 -10 16z" />
<glyph unicode="&#x201a;" horiz-adv-x="294" d="M92 -190l17 280q0 12 16 12h57q20 0 15 -18l-64 -277q-2 -14 -14 -14h-17q-10 0 -10 17z" />
<glyph unicode="&#x201c;" horiz-adv-x="466" d="M92 985l60 297q2 14 14 14h16q10 0 11 -16l-17 -301q0 -12 -16 -12h-54q-16 0 -14 18zM260 985l59 297q2 14 15 14h16q10 0 10 -16l-16 -301q0 -12 -16 -12h-54q-16 0 -14 18z" />
<glyph unicode="&#x201d;" horiz-adv-x="466" d="M113 983l16 301q0 12 16 12h54q16 0 14 -18l-59 -297q-4 -14 -15 -14h-16q-10 0 -10 16zM281 983l16 301q0 12 16 12h54q16 0 14 -18l-59 -297q-4 -14 -15 -14h-16q-10 0 -10 16z" />
<glyph unicode="&#x201e;" horiz-adv-x="432" d="M92 -190l17 280q0 12 16 12h57q20 0 15 -18l-64 -277q-2 -14 -14 -14h-17q-10 0 -10 17zM256 -190l16 280q0 12 17 12h57q20 0 14 -18l-63 -277q-2 -14 -14 -14h-17q-10 0 -10 17z" />
<glyph unicode="&#x2022;" horiz-adv-x="710" d="M231 481q0 51 37 89t92 38q53 0 90 -38t37 -89q0 -53 -36.5 -91t-90.5 -38q-55 0 -92 38t-37 91z" />
<glyph unicode="&#x2026;" horiz-adv-x="1042" d="M115 41q0 20 14 34.5t35 14.5q25 0 39 -13t14 -36t-14.5 -37t-38.5 -14q-20 0 -34.5 14t-14.5 37zM463 41q0 20 14.5 34.5t34.5 14.5q25 0 39 -13t14 -36t-14 -37t-39 -14q-20 0 -34.5 14t-14.5 37zM819 41q0 20 14.5 34.5t34.5 14.5q25 0 39.5 -13t14.5 -36t-14.5 -37 t-39.5 -14q-20 0 -34.5 14t-14.5 37z" />
<glyph unicode="&#x202f;" horiz-adv-x="323" />
<glyph unicode="&#x2039;" horiz-adv-x="606" d="M143 387q-10 14 0 27l269 325q6 8 9 9.5t13 1.5h29q16 0 6 -15l-270 -327q-4 -6 -4 -8.5t4 -6.5l270 -338q6 -8 3 -11t-9 -3h-29h-11t-11 8z" />
<glyph unicode="&#x203a;" horiz-adv-x="606" d="M138 44q-3 3 3 11l271 338q4 4 4 6t-4 9l-271 327q-10 14 6 15h29q10 0 13.5 -1t9.5 -10l268 -325q10 -12 0 -27l-268 -338q-6 -8 -11.5 -8h-11.5h-29q-6 0 -9 3z" />
<glyph unicode="&#x205f;" horiz-adv-x="404" />
<glyph unicode="&#x20ac;" d="M86 563v17q0 10 10 10h549q10 0 10 -10v-17q0 -12 -10 -12h-391q-16 0 -16 -14v-240q0 -121 74.5 -195.5t195.5 -74.5q68 0 131 24.5t104 75.5q10 12 15.5 13t11.5 -3l14 -10q10 -6 9.5 -11t-5.5 -14q-41 -57 -114.5 -86.5t-165.5 -29.5q-154 0 -236 84t-82 223v242 q0 16 -14 16h-80q-10 0 -10 12zM86 709v16q0 10 10 10h80q14 0 14 17v221q0 63 21.5 119.5t61.5 97.5t98.5 64.5t134.5 23.5q88 0 160.5 -30.5t115.5 -86.5q10 -10 0 -18l-16 -13q-14 -10 -23 5q-37 47 -100 73.5t-137 26.5q-123 0 -195.5 -74t-72.5 -192v-217q0 -16 16 -17 h391q10 0 10 -10v-16q0 -12 -10 -13h-549q-10 0 -10 13z" />
<glyph unicode="&#x2122;" horiz-adv-x="1171" d="M49 1243v12q0 8 6 9h385q8 0 9 -9v-12q0 -8 -9 -8h-170q-8 0 -8 -6v-596q0 -6 -8 -6h-14q-8 0 -9 6v596q0 6 -8 6h-168q-6 0 -6 8zM545 637v618q0 8 6 9h22q6 0 11 -9l227 -534q4 -6 8 0l228 534q4 8 12 9h20q4 0 4 -9v-618q0 -6 -6 -6h-18q-6 0 -6 6v539q0 8 -6 0 l-211 -492q-6 -8 -11 -8h-20q-10 0 -12 8l-211 492q-2 4 -3 4t-1 -4v-539q0 -6 -9 -6h-18q-6 0 -6 6z" />
<glyph unicode="&#xe000;" horiz-adv-x="890" d="M0 0v891h891v-891h-891z" />
</font>
</defs>
</svg>
