<?xml version="1.0" standalone="no"?>
<!DOCTYPE svg PUBLIC "-//W3C//DTD SVG 1.1//EN" "http://www.w3.org/Graphics/SVG/1.1/DTD/svg11.dtd" >
<svg xmlns="http://www.w3.org/2000/svg">
<metadata></metadata>
<defs>
<font id="pf_handbook_pro_light_trRg" horiz-adv-x="942" >
<font-face units-per-em="2048" ascent="1536" descent="-512" />
<missing-glyph horiz-adv-x="430" />
<glyph unicode="&#xfb01;" horiz-adv-x="854" d="M37 805v74q0 16 16 16h88q23 0 23 20v140q0 131 79 196.5t201 65.5q78 0 138.5 -19.5t95.5 -46.5q12 -10 12 -16q0 -8 -4 -14l-33 -62q-6 -10 -14 -10q-4 0 -16 6q-29 16 -72 31.5t-107 15.5q-82 0 -119.5 -50t-37.5 -126v-111q0 -20 18 -20h408q16 0 19 -6t3 -25v-848 q0 -16 -16 -16h-90q-16 0 -17 16v754q0 18 -16 18h-293q-16 -2 -16 -20v-752q0 -16 -19 -16h-90q-16 0 -16 16v750q0 20 -17 22h-94q-14 0 -14 17z" />
<glyph unicode="&#xfb02;" horiz-adv-x="913" d="M35 805v72q0 16 16 16h90q20 0 21 20v140q0 133 78.5 197.5t197.5 64.5q51 0 93 -8.5t77 -20.5q23 -8 43 -10q16 4 31.5 11t32.5 7q18 0 18 -28v-1043q0 -66 19.5 -92.5t74.5 -26.5h25q12 0 14 -7t2 -17v-72q0 -18 -18 -18q-10 -2 -23.5 -2h-23.5q-51 0 -85 13 t-55.5 36.5t-31.5 55.5t-15 69q-6 61 -6 131v852q0 10 -4 14t-10 8q-31 16 -72 25.5t-84 9.5q-78 0 -116.5 -50t-38.5 -126v-113q0 -20 18 -20h191q16 0 20 -5t4 -22v-55q0 -16 -7 -19.5t-17 -3.5h-193q-16 -2 -16 -20v-754q0 -14 -17 -14h-92q-16 0 -16 14v752q0 20 -15 22 h-96q-14 0 -14 17z" />
<glyph unicode="&#xfb03;" horiz-adv-x="1306" d="M43 805v72q0 16 16 16h91q20 0 20 20v97q0 123 81 195.5t206 72.5q59 0 111.5 -12.5t90.5 -30.5h5q2 0 3 -1t5 -1t8 4q37 39 93 59.5t120 20.5q76 0 137.5 -19.5t95.5 -46.5q12 -6 13 -16q0 -8 -4 -14l-33 -60q-6 -10 -15 -10q-4 0 -14 5t-20 11q-29 12 -68 24.5 t-90 12.5q-78 0 -117 -50t-39 -122v-119q0 -20 19 -20h407q23 0 23 -19v-860q0 -14 -17 -14h-92q-16 0 -16 14v756q0 18 -16 18h-291q-16 -2 -17 -20v-754q0 -14 -18 -14h-90q-16 0 -17 14v752q0 20 -16 22h-289q-16 -2 -16 -20v-754q0 -14 -19 -14h-90q-16 0 -16 14v752 q0 20 -16 22h-95q-14 0 -14 17zM293 913q0 -20 18 -20h285q18 0 18 20v82q0 35 2 65t7 58v8q-4 8 -8.5 9.5t-12.5 5.5q-29 10 -64.5 18t-72.5 8q-98 0 -135 -51t-37 -131v-72z" />
<glyph unicode="&#xfb04;" horiz-adv-x="1331" d="M43 805v72q0 16 16 16h91q20 0 20 20v97q0 123 81 195.5t206 72.5q59 0 111.5 -12.5t90.5 -30.5q4 -2 11 -2q6 0 10 4q80 80 215 80q49 0 91 -8.5t77 -20.5q23 -8 43 -10q16 4 31.5 11t31.5 7q18 0 19 -28v-1041q0 -66 19.5 -92t74.5 -26h25q12 0 14 -7.5t2 -17.5v-72 q0 -18 -18 -18q-10 -2 -23.5 -2h-24.5q-55 0 -92 16.5t-58.5 44t-30.5 65.5t-11 81v948q0 16 -11.5 21.5t-21.5 11.5q-59 25 -139 24q-78 0 -117 -50t-39 -126v-115q0 -20 19 -20h190q16 0 20.5 -5t4.5 -22v-55q0 -16 -7.5 -19.5t-17.5 -3.5h-192q-16 -2 -17 -20v-754 q0 -14 -16 -14h-92q-16 0 -17 14v752q0 20 -16 22h-287q-16 -2 -16 -20v-754q0 -14 -19 -14h-90q-16 0 -16 14v752q0 20 -16 22h-95q-14 0 -14 17zM293 913q0 -20 18 -20h285q18 0 18 20v115q0 47 11 88v10q-4 8 -11 11q-33 14 -70.5 22t-80.5 8q-86 0 -128 -48t-42 -134 v-72z" />
<glyph horiz-adv-x="2048" />
<glyph horiz-adv-x="2048" />
<glyph unicode="&#xd;" horiz-adv-x="2048" />
<glyph unicode=" "  horiz-adv-x="430" />
<glyph unicode="&#x09;" horiz-adv-x="430" />
<glyph unicode="&#xa0;" horiz-adv-x="430" />
<glyph unicode="!" horiz-adv-x="524" d="M176 74q0 37 27.5 63.5t64.5 26.5q41 0 67.5 -25.5t26.5 -64.5q0 -37 -25.5 -63.5t-66.5 -26.5q-39 0 -66.5 26.5t-27.5 63.5zM197 1243q0 20 20 21h100q20 0 21 -19l-27 -901q0 -18 -16 -18h-45q-18 0 -19 16z" />
<glyph unicode="&#x22;" horiz-adv-x="518" d="M109 868v379q0 16 16 17h72q20 0 16 -15v-381q0 -14 -16 -14h-70q-18 0 -18 14zM311 868v379q0 16 19 17h71q18 0 15 -15v-381q0 -14 -15 -14h-71q-6 0 -12.5 3t-6.5 11z" />
<glyph unicode="#" d="M45 383l12 61q6 16 23 17h121q14 0 18 16l62 285q6 23 -17 22h-131q-18 0 -14 15l12 57q4 16 21 16h143q12 0 16 15l54 246q2 12 16 12h63q14 0 16.5 -5t0.5 -16l-49 -227q-4 -12 -1 -18.5t19 -6.5h197q12 0 16 15l55 246q0 12 17 12h61q16 0 18.5 -5t0.5 -16l-50 -227 q-2 -12 0.5 -18.5t18.5 -6.5h117q14 0 15 -8t-1 -16l-12 -47q-2 -16 -21 -17h-125q-18 0 -20 -14l-62 -285q-2 -14 0 -19t19 -5h137q16 0 12 -17l-10 -57q-6 -16 -20 -16h-148q-16 0 -18 -11l-58 -260q-4 -12 -16 -12h-61q-23 0 -19 21l53 241q0 10 -2 16.5t-18 6.5h-193 q-16 0 -18 -13l-62 -260q-4 -12 -14 -12h-63q-23 0 -19 18q0 4 8.5 42t18.5 83q10 53 26 119q2 10 0 15.5t-18 5.5h-111q-16 0 -16 12zM322 466q2 -5 18 -5h195q14 0 18 16l61 287q2 10 0 15t-18 5h-188q-25 0 -25 -18l-61 -283q-2 -12 0 -17z" />
<glyph unicode="$" d="M117 918q0 63 23.5 117.5t63.5 95t92 67.5t112 37q12 2 12 16v115q0 16 16 16h49q18 0 19 -16v-113q0 -10 16 -14q150 -8 264 -98q12 -16 0 -31l-47 -57q-12 -14 -32 2q-55 47 -115 64.5t-117 17.5q-41 0 -84 -13.5t-76.5 -41t-55 -69.5t-21.5 -100q0 -51 24.5 -86.5 t62 -60.5t82 -40t84.5 -28q63 -18 125 -44.5t110 -66.5t76.5 -95.5t28.5 -131.5q0 -74 -23.5 -130t-65.5 -97t-98 -66.5t-122 -33.5q-16 0 -16 -17v-131q0 -18 -19 -18h-49q-16 0 -16 16v133q0 14 -19 15q-78 4 -144.5 28.5t-131.5 75.5q-12 12 0 29l47 55q12 16 31 -2 q47 -37 109.5 -60.5t133.5 -23.5q51 0 99.5 13.5t84.5 41t57.5 67.5t21.5 95t-21.5 93t-55.5 66t-76 45t-81 30q-55 16 -117.5 37.5t-116 58.5t-89 94t-35.5 144z" />
<glyph unicode="%" horiz-adv-x="1382" d="M90 692v369q0 98 64.5 154.5t173.5 56.5q104 0 170.5 -55.5t66.5 -155.5v-369q0 -100 -63.5 -155.5t-173.5 -55.5q-111 0 -174.5 55.5t-63.5 155.5zM197 694q0 -55 34.5 -90t96.5 -35q59 0 95 33t36 92v367q0 53 -36 88t-95 35t-95 -35t-36 -88v-367zM350 -45l576 1356 q4 10 10 12t12 2h45q16 0 18.5 -5t-1.5 -15l-574 -1352q-4 -10 -9 -12t-13 -2h-54q-16 0 -10 16zM813 203v366q0 98 64.5 155.5t173.5 57.5q104 0 169.5 -56t65.5 -157v-366q0 -100 -62.5 -154.5t-172.5 -54.5q-111 0 -174.5 53t-63.5 156zM915 203q0 -57 36 -92t100 -35 q59 0 96 33.5t37 93.5v366q0 55 -36 91t-97 36t-98.5 -36.5t-37.5 -90.5v-366z" />
<glyph unicode="&#x26;" horiz-adv-x="1167" d="M137 342v461q0 74 28 135t77 105t116.5 69t147.5 25h272q20 0 21 -19v-71q0 -18 -19 -19h-274q-109 0 -176.5 -62.5t-67.5 -162.5v-459q0 -49 11.5 -94t39 -80t73.5 -55.5t114 -20.5h28q70 0 117 22.5t76 60.5t42 85t13 96v234q0 4 -2 12t-18 8h-240q-18 0 -18 19v67 q0 20 20 21h402q49 0 104 13t111 52q8 8 18 9q8 0 18 -11l25 -39q8 -10 8 -20q0 -8 -10 -18q-23 -23 -55.5 -38.5t-69.5 -26.5t-72.5 -17.5t-64.5 -8.5q-33 -2 -33 -30v-205q0 -84 -22.5 -154.5t-68.5 -124t-115.5 -83t-164.5 -29.5h-28q-178 0 -270.5 98t-92.5 256z" />
<glyph unicode="'" horiz-adv-x="333" d="M113 868v379q0 16 16 17h74q18 0 18 -15l-2 -381q0 -14 -16 -14h-72q-18 0 -18 14z" />
<glyph unicode="(" horiz-adv-x="636" d="M129 543q0 125 32 251t81 240.5t105 210.5t106 160q12 16 36 4l41 -23q23 -12 9 -32q-57 -86 -106.5 -183.5t-86.5 -202t-57.5 -212t-20.5 -213.5q0 -115 23.5 -224.5t61.5 -209t86 -188.5t98 -165q16 -23 -5 -35l-40 -26q-27 -18 -46 4q-57 70 -113.5 164t-101.5 203.5 t-73.5 230.5t-28.5 246z" />
<glyph unicode=")" horiz-adv-x="636" d="M123 1354q-14 20 8 32l41 23q25 12 37 -4q49 -63 105.5 -159.5t105.5 -211t80.5 -240.5t31.5 -251t-28.5 -246t-73.5 -230.5t-101.5 -203.5t-113.5 -164q-16 -25 -43 -4l-43 26q-20 12 -4 35q49 76 97 165t86 188.5t61.5 209t23.5 224.5q0 106 -20.5 213.5t-57 212 t-86 202t-106.5 183.5z" />
<glyph unicode="*" horiz-adv-x="739" d="M76 1094l18 55q8 31 39 18l186 -75q12 -4 13 8l-19 207q-2 12 4.5 18t28.5 6h53q33 0 29 -26l-18 -201q-2 -18 12 -12l184 73q31 14 39 -16l21 -53q8 -27 -17 -33l-196 -47q-20 -4 -7 -19l127 -153q23 -25 0 -39l-45 -31q-16 -10 -25 -9t-20 17l-100 168q-8 16 -23 0 l-104 -170q-10 -14 -18.5 -15t-24.5 9l-43 31q-29 16 -4 43l129 149q12 12 -6 17l-195 49q-25 6 -18 31z" />
<glyph unicode="+" d="M74 459v55q0 25 24 25h308q10 0 10 10v315q0 25 24 25h56q23 0 22 -25v-315q0 -10 12 -10h314q25 0 24 -25v-53q0 -25 -24 -25h-314q-12 0 -12 -8v-317q0 -23 -22 -23h-56q-25 0 -24 23v315q0 10 -10 10h-308q-25 0 -24 23z" />
<glyph unicode="," horiz-adv-x="389" d="M104 -195l21 340q0 27 27 27h110q35 0 23 -35l-90 -340q-6 -23 -27 -22h-45q-12 0 -16.5 9t-2.5 21z" />
<glyph unicode="-" horiz-adv-x="653" d="M115 451v75q0 16 16 17h379q16 0 16 -17v-75q0 -18 -14 -19h-379q-18 0 -18 19z" />
<glyph unicode="." horiz-adv-x="387" d="M104 76q0 37 27 62.5t62 25.5q41 0 66.5 -24.5t25.5 -63.5t-26 -65.5t-66 -26.5q-35 0 -62 27.5t-27 64.5z" />
<glyph unicode="/" horiz-adv-x="602" d="M10 -113l486 1473q8 23 32 22h45q8 0 14.5 -6t2.5 -16l-490 -1475q-10 -20 -26 -20h-47q-27 0 -17 22z" />
<glyph unicode="0" d="M131 322v624q0 76 25.5 138.5t71.5 105.5t110.5 66.5t144.5 23.5q158 0 255.5 -87t97.5 -247v-624q0 -160 -93.5 -247t-257.5 -87q-162 0 -258 86t-96 248zM258 324q0 -102 60.5 -165t164.5 -63q100 0 163 59.5t63 168.5v620q0 98 -60.5 161.5t-165.5 63.5 q-102 0 -163.5 -63.5t-61.5 -161.5v-620z" />
<glyph unicode="1" d="M219 999v76q0 14 3 22.5t14 16.5l215 133q10 6 19 11.5t22 5.5h55q20 0 20 -23v-1223q0 -18 -16 -18h-94q-16 0 -17 16v1063q0 23 -22 11l-162 -99q-16 -10 -26.5 -7t-10.5 15z" />
<glyph unicode="2" d="M90 27v45q0 18 3 33.5t16 31.5l464 602q41 55 71 120t30 112q0 84 -53.5 141t-161.5 57q-66 0 -126.5 -29.5t-88.5 -70.5q-20 -27 -39 -12l-60 41q-20 12 -6 30q53 78 140.5 115t183.5 37q70 0 132 -18.5t109.5 -57.5t74 -96t26.5 -133q0 -66 -37 -145.5t-94 -151.5 l-422 -549q-16 -18 10 -18h533q18 0 18 -17v-76q0 -18 -16 -18h-678q-29 0 -29 27z" />
<glyph unicode="3" d="M125 139q-10 16 8 31l62 41q20 14 30 0q33 -51 86.5 -85t112.5 -34q49 0 91 16.5t72.5 45t48 69.5t17.5 90v107q0 92 -53 155.5t-156 63.5h-127q-18 0 -18 14v78q0 14 16 14h127q86 0 147.5 54.5t61.5 152.5q0 45 -16.5 85t-45 71t-67.5 48.5t-86 17.5q-61 0 -113.5 -28 t-82.5 -77q-6 -10 -15.5 -14t-19.5 2l-64 41q-20 12 -8 30q51 78 135 115t176 37q74 0 135.5 -23.5t104.5 -65.5t66.5 -99.5t23.5 -124.5q0 -98 -46 -171t-114 -96q-8 -4 -8 -9t8 -7q47 -12 79 -41t50.5 -63.5t26.5 -74.5t8 -77v-98q0 -166 -94 -255t-260 -89 q-63 0 -118.5 16t-100.5 51q-53 39 -80 86z" />
<glyph unicode="4" d="M80 307v45q0 29 3 42.5t13 31.5l426 821q8 10 14.5 13.5t16.5 3.5h86q10 0 15 -8.5t-1 -18.5l-434 -821q-4 -6 -3 -13.5t13 -7.5h332q14 0 15.5 8.5t1.5 14.5v373q0 16 18 16h90q16 0 16 -16v-369q0 -14 3.5 -20.5t17.5 -6.5h137q18 0 19 -18v-70q0 -18 -19 -18h-133 q-10 0 -16 -3t-6 -20v-248q0 -18 -19 -18h-90q-18 0 -18 18v248q0 23 -21 23h-459q-18 0 -18 18z" />
<glyph unicode="5" d="M129 143q-10 18 6 29l70 39q16 10 31 -6q41 -53 86 -81t116 -28q111 0 173.5 61.5t62.5 164.5v165q0 86 -54.5 150.5t-175.5 64.5q-35 0 -72.5 -13t-62.5 -30q-31 -25 -57 -14l-59 29q-12 6 -19.5 14t-7.5 25v532q0 18 18 19h570q18 0 18 -17v-78q0 -14 -16 -14h-445 q-18 0 -18 -18v-340q0 -31 35 -17q35 20 67.5 27.5t65.5 7.5q170 0 255 -92t85 -236v-151q0 -84 -28 -148.5t-76 -108.5t-113.5 -67.5t-143.5 -23.5q-115 0 -189.5 37.5t-121.5 117.5z" />
<glyph unicode="6" d="M123 317v603q0 84 27.5 150.5t76.5 113.5t117 71.5t148 24.5q102 0 175.5 -34t137.5 -109q12 -18 -4 -29l-64 -53q-16 -10 -30 8q-35 47 -91.5 76.5t-123.5 29.5q-117 0 -179.5 -69.5t-62.5 -169.5v-215q0 -27 20 -10q45 47 101.5 68.5t120.5 21.5q76 0 139 -22.5 t109 -64.5t71 -100.5t25 -130.5v-153q0 -154 -97.5 -245t-257.5 -91q-78 0 -143.5 20.5t-112.5 62.5t-74.5 103.5t-27.5 142.5zM250 319q0 -100 64.5 -162.5t166.5 -62.5q104 0 165 62.5t63 171.5l2 145q0 102 -66.5 156.5t-165.5 54.5q-47 0 -89 -17.5t-72.5 -46t-49 -69.5 t-18.5 -86v-146z" />
<glyph unicode="7" d="M127 1030v215q0 18 18 19h656q33 0 33 -25v-47q0 -12 -5.5 -26.5t-9.5 -22.5q-133 -303 -241 -545q-47 -102 -91.5 -202.5t-80 -181.5t-59 -134t-28.5 -62q-10 -18 -26 -18h-96q-27 0 -17 23l494 1103q12 29 -21 29h-391q-23 0 -22 -20v-103q0 -18 -17 -18h-78 q-18 0 -18 16z" />
<glyph unicode="8" d="M102 354q0 51 13.5 100.5t37 89.5t55.5 70.5t68 44.5q8 4 9.5 10.5t-6.5 10.5q-39 16 -69 46t-49.5 66.5t-29.5 75.5t-10 76q0 76 26.5 137.5t74.5 106.5t112.5 69.5t140.5 24.5q78 0 143.5 -23.5t112.5 -67.5t72.5 -106.5t25.5 -138.5q0 -74 -40.5 -147.5t-106.5 -114.5 q-14 -14 -2 -22q72 -37 119 -115t47 -182q0 -94 -30 -165t-80 -118t-118.5 -70.5t-146.5 -23.5q-80 0 -147.5 21.5t-116.5 65.5t-77 113.5t-28 165.5zM229 354q0 -125 70 -191.5t170 -66.5q47 0 92 16.5t80 49.5t56.5 82t21.5 114q0 63 -20.5 110.5t-55.5 79.5t-79 47 t-91 15t-91 -16t-78 -49t-54.5 -80t-20.5 -111zM244 944q0 -47 19.5 -86t51 -66.5t73.5 -44t87 -16.5t86 15.5t73 43t50 67.5t18 87q0 98 -61 164t-166 66q-49 0 -92 -17.5t-73.5 -48.5t-48 -73t-17.5 -91z" />
<glyph unicode="9" d="M100 797v139q0 76 27 139.5t76 109.5t116.5 70.5t151.5 24.5q154 0 248 -91t94 -261v-555q0 -186 -100.5 -285.5t-276.5 -99.5q-104 0 -184 40t-131 117q-14 20 4 29l70 41q16 10 30 -8q35 -47 87.5 -79t121.5 -32q119 0 186.5 72t67.5 205v180q0 27 -20 10 q-90 -92 -222 -92q-76 0 -139 23.5t-109 66.5t-72 103.5t-26 132.5zM227 799q0 -102 61.5 -159.5t172.5 -57.5q45 0 87 17t72.5 46t49 69t18.5 87v141q0 102 -63.5 165.5t-163.5 63.5q-104 0 -169 -65.5t-65 -161.5v-145z" />
<glyph unicode=":" horiz-adv-x="387" d="M102 72q0 39 27 64.5t61 25.5q41 0 68 -24.5t27 -63.5t-27 -63.5t-68 -24.5q-35 0 -61.5 25.5t-26.5 60.5zM102 688q0 35 27 61.5t61 26.5q39 0 67 -26.5t28 -61.5q0 -37 -27 -64.5t-68 -27.5q-35 0 -61.5 26.5t-26.5 65.5z" />
<glyph unicode=";" horiz-adv-x="395" d="M96 -195l21 338q4 29 28 29h111q31 0 23 -35l-91 -340q-6 -23 -26 -22h-45q-25 0 -21 30zM109 688q0 35 26.5 62.5t63.5 27.5q41 0 66.5 -26.5t25.5 -63.5t-25.5 -63.5t-66.5 -26.5q-37 0 -63.5 25.5t-26.5 64.5z" />
<glyph unicode="&#x3c;" d="M49 485v64q0 27 23 37l778 405q2 2 6 2q2 2 10 2q16 0 17 -18v-59q0 -10 -5.5 -21.5t-19.5 -17.5l-637 -334q-8 -4 -15 -8.5t-16 -8.5q-10 -2 -10 -10q0 -6 10 -10l670 -344q16 -10 19.5 -21.5t3.5 -21.5v-64q0 -16 -19 -16h-6q-2 0 -3 1t-5 1l-768 403q-33 14 -33 39z " />
<glyph unicode="=" d="M76 299v51q0 25 24 25h742q25 0 24 -25v-49q0 -25 -24 -25h-742q-25 0 -24 23zM76 659v52q0 25 24 24h742q25 0 24 -24v-49q0 -25 -24 -25h-742q-25 0 -24 22z" />
<glyph unicode="&#x3e;" d="M53 57v64q0 10 3 21.5t20 21.5l669 344q10 4 11 10q0 8 -11 10q-8 4 -15 8.5t-15 8.5l-637 334q-14 6 -19.5 17t-5.5 22v59q0 18 17 18q8 0 10 -2q4 0 6 -2l778 -405q23 -10 23 -37v-64q0 -25 -33 -39l-768 -403q-4 0 -5 -1t-3 -1h-6q-18 0 -19 16z" />
<glyph unicode="?" horiz-adv-x="956" d="M172 1128q49 78 132 118t179 40q72 0 134.5 -21.5t107.5 -62.5t70.5 -99t25.5 -134q0 -92 -51 -175t-152 -149q-92 -57 -137 -111.5t-45 -138.5v-69q0 -23 -14 -23h-88q-12 0 -17.5 4t-5.5 21v88q0 78 40 151.5t118 126.5q47 31 87 61.5t69.5 63.5t47 69t17.5 77 q0 35 -11 71.5t-36 67.5t-65.5 50.5t-98.5 19.5q-63 0 -116.5 -33t-88.5 -78q-14 -20 -32 -4l-66 41q-18 12 -4 28zM281 74q0 35 26.5 61.5t63.5 26.5q41 0 66.5 -24.5t25.5 -63.5q0 -37 -25.5 -64.5t-66.5 -27.5q-37 0 -63.5 27.5t-26.5 64.5z" />
<glyph unicode="@" horiz-adv-x="1503" d="M127 596q0 139 49 260t137 210t210 140t270 51q131 0 244.5 -40.5t197.5 -115.5t132 -179.5t48 -233.5q0 -117 -26.5 -198.5t-69.5 -133t-97.5 -75t-111.5 -23.5q-59 0 -107.5 22.5t-64.5 61.5q-4 16 -12 0q-35 -49 -84 -68.5t-97 -19.5q-49 0 -92 16.5t-75.5 46 t-52 71.5t-19.5 95q0 104 68.5 166t173.5 62q41 0 80.5 -13.5t66.5 -40.5q4 -4 10 -2t6 13v34q0 72 -46 104t-120 32q-39 0 -71.5 -9.5t-67.5 -25.5q-23 -12 -28 8l-17 53q-4 14 8 19q41 20 94.5 31.5t100.5 11.5q70 0 116 -19.5t73.5 -50.5t39 -69.5t11.5 -75.5v-246 q0 -49 22.5 -84t85.5 -35q41 0 78 19.5t65.5 61.5t46 105.5t17.5 149.5q0 119 -47 210t-121 153.5t-167 95.5t-185 33q-125 0 -230.5 -44.5t-182.5 -121t-120 -182t-43 -230.5q0 -127 43 -233.5t120 -183.5t184.5 -120t238.5 -43q90 0 174 17.5t160 48.5q10 4 21.5 5 t15.5 -9l18 -55q4 -14 -3 -19.5t-17 -9.5q-86 -29 -174.5 -46.5t-184.5 -17.5q-154 0 -281.5 46.5t-219 132.5t-141.5 209.5t-50 277.5zM604 485q0 -59 43 -102t105 -43q66 0 106.5 43t40.5 102q0 51 -36 97.5t-111 46.5q-61 0 -104.5 -42t-43.5 -102z" />
<glyph unicode="A" horiz-adv-x="923" d="M35 25l330 1218q4 20 24 21h137q18 0 25 -19l336 -1216q3 -8 3 -16q0 -13 -18 -13h-94q-18 0 -24 14l-78 281q-2 8 -10 8h-416q-10 0 -12 -6q-4 -23 -14.5 -60.5t-23 -80.5t-22.5 -82t-16 -60q-2 -14 -23 -14h-84q-12 0 -18 4q-4 2 -4 9q0 5 2 12zM270 428q-2 -14 9 -14 h354q14 0 12 14l-117 428l-65 264q-2 6 -5 6t-5 -6l-66 -262z" />
<glyph unicode="B" horiz-adv-x="970" d="M117 20v1223q0 20 18 21h373q158 0 251 -81t93 -241q0 -72 -40 -143.5t-112 -110.5q-8 -8 2 -14q94 -39 140.5 -125t46.5 -182q0 -80 -24.5 -147.5t-70.5 -117t-112 -76t-147 -26.5h-398q-20 0 -20 20zM248 129q0 -14 16 -14h266q109 0 168.5 70.5t59.5 176.5 q0 51 -15.5 97.5t-46 82.5t-77 57.5t-109.5 21.5h-248q-14 0 -14 -17v-475zM248 750q0 -16 14 -17h246q102 0 158.5 59.5t56.5 151.5q0 94 -56.5 150.5t-160.5 56.5h-244q-14 0 -14 -14v-387z" />
<glyph unicode="C" horiz-adv-x="864" d="M119 328v612q0 76 26.5 138.5t75.5 107.5t117 69.5t147 24.5q94 0 179 -30.5t151 -110.5q6 -8 6 -16q0 -10 -10 -21l-57 -47q-8 -8 -19.5 -6t-17.5 12q-39 47 -101.5 75.5t-128.5 28.5q-111 0 -174 -64.5t-63 -162.5v-606q0 -98 64.5 -165t181.5 -67q66 0 124 29t97 70 q10 12 19 17t24 -5l55 -47q9 -7 9 -15q0 -6 -5 -14q-59 -72 -142 -109.5t-181 -37.5q-84 0 -154 23.5t-119 67.5t-76.5 106.5t-27.5 142.5z" />
<glyph unicode="D" horiz-adv-x="989" d="M125 20v1223q0 20 20 21h375q176 0 268.5 -90.5t92.5 -260.5v-551q0 -178 -94.5 -270t-268.5 -92h-373q-20 0 -20 20zM256 129q0 -14 16 -14h248q111 0 169.5 59t58.5 170v578q0 111 -56.5 170t-179.5 59h-240q-16 0 -16 -14v-1008z" />
<glyph unicode="E" horiz-adv-x="890" d="M123 20v1223q0 20 22 21h648q20 0 20 -21v-74q0 -18 -20 -18h-523q-16 0 -16 -14v-410q0 -14 14 -14h445q20 0 20 -21v-76q0 -18 -18 -18h-445q-16 0 -16 -16v-453q0 -14 14 -14h541q20 0 20 -19v-76q0 -20 -20 -20h-664q-23 0 -22 20z" />
<glyph unicode="F" horiz-adv-x="819" d="M121 18v1225q0 20 22 21h635q20 0 21 -19v-76q0 -18 -21 -18h-510q-16 0 -16 -14v-414q0 -14 14 -14h434q18 0 19 -21v-78q0 -18 -19 -18h-432q-14 0 -14 -17l-2 -555q0 -20 -16 -20h-93q-23 0 -22 18z" />
<glyph unicode="G" horiz-adv-x="964" d="M119 326v616q0 76 28.5 137.5t80 106.5t120 69.5t148.5 24.5q47 0 95 -9t92 -27.5t81 -46.5t61 -67q10 -20 -8 -34l-57 -45q-10 -8 -20.5 -4t-18.5 14q-41 55 -102.5 78.5t-120.5 23.5t-105.5 -18.5t-78 -50t-48 -73.5t-16.5 -91v-600q0 -104 68.5 -167t177.5 -63 q102 0 166.5 58.5t64.5 169.5v223q0 16 -12 16h-166q-20 0 -21 19v78q0 20 21 20h291q23 0 22 -20v-338q0 -74 -26.5 -136.5t-74.5 -106.5t-115.5 -69.5t-149.5 -25.5q-80 0 -150 22.5t-120 65.5t-78.5 106.5t-28.5 143.5z" />
<glyph unicode="H" horiz-adv-x="1046" d="M127 18v1227q0 18 20 19h91q20 0 20 -19v-520q0 -16 14 -16h502q14 0 14 16v520q0 18 21 19h92q20 0 21 -19v-1225q0 -20 -19 -20h-94q-20 0 -21 18v562q0 16 -14 16h-502q-14 0 -14 -16v-560q0 -20 -18 -20h-93q-20 0 -20 18z" />
<glyph unicode="I" horiz-adv-x="452" d="M158 18v1227q0 18 20 19h92q20 0 21 -19v-1225q0 -20 -21 -20h-92q-20 0 -20 18z" />
<glyph unicode="J" horiz-adv-x="507" d="M-39 -127q2 8 19 14q70 27 118.5 55.5t78.5 69.5t43 98.5t13 137.5v993q0 23 25 23h80q25 0 24 -23v-981q0 -102 -15 -179t-53 -136.5t-105.5 -102.5t-172.5 -75q-5 -2 -10 -2l-10 2q-10 4 -14 22l-19 64q-3 8 -3 14q0 3 1 6z" />
<glyph unicode="K" horiz-adv-x="993" d="M127 16v1227q0 20 18 21h99q14 0 14 -19v-545q0 -33 21 -8l477 557q14 14 26 15h99q16 0 19 -8.5t-3 -16.5l-410 -479q-12 -18 11 -19q34 5 63 5q10 0 19 -1q80 -4 135 -30.5t91 -71.5t54.5 -104.5t24.5 -126.5l28 -394q0 -18 -18 -18h-86q-18 0 -18 16l-27 371 q-2 41 -11.5 86t-34 83t-71.5 62.5t-127 24.5q-72 0 -121 -21.5t-80.5 -58.5t-46 -84t-14.5 -98v-363q0 -18 -14 -18h-99q-18 0 -18 16z" />
<glyph unicode="L" horiz-adv-x="841" d="M127 20v1225q0 18 18 19h93q18 0 18 -19v-1114q0 -16 14 -16h523q18 0 18 -19v-76q0 -20 -18 -20h-646q-20 0 -20 20z" />
<glyph unicode="M" horiz-adv-x="1247" d="M102 18v1213q0 33 31 33h64q23 0 28.5 -4.5t12.5 -20.5q12 -33 33.5 -91t49 -132t57.5 -153t57.5 -152.5t50 -133t34.5 -90.5l94 -264q8 -16 17 0q23 66 46 133.5t48 132.5l281 752q8 12 15 17.5t23 5.5h66q20 0 25.5 -9.5t5.5 -23.5v-1211q0 -20 -19 -20h-86 q-20 0 -20 18v904q0 10 -8 2l-131 -357q-12 -31 -40 -101.5t-58.5 -148t-57.5 -147.5t-37 -100q-4 -8 -11 -16.5t-22 -8.5h-63q-14 0 -21.5 3t-13.5 20q-12 33 -39 103.5t-56.5 150t-57 150.5t-40.5 103q-4 10 -22.5 61.5t-40 111t-40.5 110.5t-24 62q-2 4 -4 4t-2 -4v-900 q0 -20 -18 -20h-86q-20 0 -21 18z" />
<glyph unicode="N" horiz-adv-x="1040" d="M123 20v1205q0 18 5 28.5t28 10.5h59q20 0 27.5 -8.5t15.5 -18.5l533 -973q2 -4 4 -4t2 4v979q0 20 18 21h88q18 0 19 -19v-1212q0 -20 -10.5 -26.5t-20.5 -6.5h-64q-18 0 -26 6t-15 19l-532 968q-2 4 -4 4t-2 -4v-973q0 -20 -21 -20h-86q-18 0 -18 20z" />
<glyph unicode="O" horiz-adv-x="997" d="M119 338v596q0 78 28.5 141.5t78.5 109.5t120 70.5t152 24.5t151.5 -23.5t120.5 -68.5t80 -109.5t29 -144.5v-600q0 -80 -28 -144.5t-77 -108.5t-118.5 -68.5t-155.5 -24.5q-174 0 -277.5 94t-103.5 256zM250 342q0 -49 15.5 -93t46 -77t76.5 -52.5t110 -19.5 q117 0 183.5 65.5t66.5 172.5v592q0 49 -16.5 91t-48.5 73.5t-78 50t-105 18.5t-105.5 -18.5t-79 -50t-49 -73.5t-16.5 -91v-588z" />
<glyph unicode="P" horiz-adv-x="925" d="M131 18v1225q0 20 23 21h366q84 0 151.5 -27t113.5 -75t71 -113.5t25 -141.5q0 -74 -27 -138t-75 -111.5t-113.5 -74t-143.5 -26.5h-243q-16 0 -17 -18v-519q0 -20 -20 -20h-88q-23 0 -23 18zM260 684q0 -16 16 -16h244q109 0 170.5 65.5t61.5 175.5q0 45 -15.5 89 t-44 78t-71.5 54.5t-101 20.5h-241q-18 0 -19 -14v-453z" />
<glyph unicode="Q" horiz-adv-x="997" d="M119 332v608q0 78 29.5 140.5t81 107.5t120 68.5t148.5 23.5t148.5 -23.5t120.5 -66.5t82 -106.5t30 -143.5v-610q0 -141 -82 -230.5t-222 -105.5q-16 -2 -16 -25q0 -53 18.5 -88t81.5 -35q25 0 60 6.5t67 20.5q27 10 35 -10l23 -53q6 -23 -15 -35q-41 -23 -89 -33 t-85 -10q-121 0 -172 66.5t-51 174.5q0 20 -16 21q-131 23 -214 112t-83 226zM250 336q0 -102 65.5 -169t182.5 -67q111 0 180.5 63.5t69.5 170.5v602q0 49 -18.5 91t-50.5 72.5t-78 48t-101 17.5t-101.5 -18.5t-79 -49t-51 -72.5t-18.5 -89v-600z" />
<glyph unicode="R" horiz-adv-x="970" d="M129 18v1223q0 23 23 23h364q184 0 274.5 -95.5t90.5 -253.5q0 -57 -16.5 -109t-44 -96t-62.5 -81t-72 -64q-8 -6 -4 -16q4 -4 66.5 -140.5t175.5 -373.5q5 -10 5 -17q-1 -6 -5 -10q-10 -8 -19 -8h-80q-25 0 -34 8t-15 25l-223 483q-4 10 -10 15.5t-23 5.5h-246 q-16 0 -16 -17v-500q0 -20 -18 -20h-90q-20 0 -21 18zM258 666q0 -16 14 -17h301q12 0 21.5 3t13.5 7q63 39 101.5 108t38.5 134q0 43 -10.5 87t-39 81t-78 59.5t-126.5 22.5h-218q-18 0 -18 -16v-469z" />
<glyph unicode="S" horiz-adv-x="901" d="M57 133q-7 7 -7 14q0 10 13 19l52 49q10 8 18 5t19 -13q49 -47 118.5 -76t141.5 -29q127 0 207.5 58.5t80.5 175.5q0 57 -20.5 97t-55 68.5t-79.5 49t-94 39.5q-59 23 -124 49.5t-119 66t-90 97t-36 139.5q0 80 28.5 143.5t78 106.5t115 65.5t136.5 22.5q78 0 166 -20.5 t166 -79.5q14 -10 10 -18.5t-8 -16.5l-37 -58q-8 -12 -19 -10t-22 8q-125 78 -241 78q-47 0 -90 -11t-78 -38t-55.5 -70t-20.5 -104q0 -47 24.5 -82t62.5 -61.5t85 -47t92 -36.5q68 -27 131.5 -55.5t113.5 -70.5t79.5 -101.5t29.5 -145.5q0 -84 -31.5 -149.5t-87 -109.5 t-131 -67.5t-165.5 -23.5q-109 0 -205 36.5t-152 106.5z" />
<glyph unicode="T" horiz-adv-x="837" d="M29 1169v74q0 20 18 21h744q18 0 18 -19v-76q0 -18 -18 -18h-293q-16 0 -17 -14v-1117q0 -20 -18 -20h-92q-20 0 -21 18v1117q0 16 -16 16h-287q-10 0 -14 3t-4 15z" />
<glyph unicode="U" horiz-adv-x="1001" d="M119 328v917q0 18 20 19h92q18 0 19 -19v-917q0 -96 67.5 -162t184.5 -66t182.5 66.5t65.5 165.5v913q0 18 20 19h92q18 0 19 -19v-917q0 -80 -30 -143.5t-81 -106.5t-119.5 -66.5t-148.5 -23.5q-84 0 -153.5 23.5t-121 67.5t-80 107.5t-28.5 141.5z" />
<glyph unicode="V" horiz-adv-x="884" d="M23 1235q-3 7 -3 13q0 16 23 16h92q12 0 16.5 -4.5t8.5 -12.5l190 -717l94 -374q4 -12 9 0q6 25 19 77t27.5 109t27 109.5t18.5 78.5l186 717q6 16 25 17h90q22 0 24 -12q0 -3 1 -6q0 -8 -3 -15l-342 -1215q-6 -16 -24 -16h-111q-20 0 -24 18z" />
<glyph unicode="W" horiz-adv-x="1335" d="M10 1239v4q0 20 21 21h96q12 0 16 -6.5t7 -16.5q37 -172 74.5 -342t72.5 -340l72 -356q2 -2 6 -2t4 2q20 98 35.5 179t38.5 183q25 125 59.5 288t83.5 396q2 4 5 9.5t20 5.5h90q18 0 24 -21q35 -166 74 -336t76 -336q18 -92 38.5 -184t39.5 -184q2 -6 6 -6t4 6l74 377 q35 166 69.5 332.5t69.5 332.5q2 18 22 19h90q23 0 23 -17q0 -8 -2 -12l-275 -1221q-8 -14 -20 -14h-119q-16 0 -18 12q-37 170 -74 337t-76 337l-71 334v4l-4 -4l-70 -338l-141 -670q-4 -12 -21 -12h-117q-14 0 -20 10z" />
<glyph unicode="X" horiz-adv-x="884" d="M33 27l327 610q10 23 6 31t-8 14l-297 557q-14 25 17 25h98q16 0 22.5 -3.5t10.5 -13.5l233 -452q4 -4 8.5 -4t6.5 4q16 33 49 95t68.5 129.5t68.5 130t49 97.5q4 10 10.5 13.5t22.5 3.5h92q27 0 17 -25q-25 -47 -66 -123t-86 -159t-86 -158.5t-66 -120.5 q-6 -12 -5 -22.5t5 -16.5q25 -47 70 -130t96.5 -175t97.5 -176t70 -131q3 -7 3 -13q0 -4 -1 -6q-2 -8 -16 -8h-96q-12 0 -20.5 2t-14.5 14l-262 502q-8 20 -19 2l-264 -504q-8 -12 -15 -14t-20 -2h-92q-19 0 -19 12q0 6 5 15z" />
<glyph unicode="Y" horiz-adv-x="858" d="M33 1235q-4 9 -4 15q0 14 20 14h86q25 0 35 -21l252 -602q8 -14 16 -2q18 45 52 128t73 173t73 172t52 129q6 12 12.5 17.5t24.5 5.5h86q21 0 21 -13q0 -7 -5 -16l-323 -727q-10 -27 -10 -49v-439q0 -20 -19 -20h-92q-20 0 -21 18v439q0 12 -1 23.5t-7 21.5z" />
<glyph unicode="Z" horiz-adv-x="833" d="M53 27v49q0 25 13 47l546 1007q12 20 -12 21h-496q-20 0 -20 18v74q0 20 20 21h637q33 0 33 -29v-45q0 -16 -6 -34.5t-12 -29.5l-537 -991q-14 -20 10 -20h535q20 0 20 -19v-76q0 -20 -18 -20h-682q-31 0 -31 27z" />
<glyph unicode="[" horiz-adv-x="645" d="M203 -281v1657q0 18 16 19h279q16 0 16 -19v-76q0 -14 -16 -14h-152q-18 0 -18 -18v-1440q0 -16 18 -16h152q16 0 16 -17v-76q0 -16 -16 -16h-279q-16 0 -16 16z" />
<glyph unicode="\" horiz-adv-x="602" d="M10 1360q-4 10 2 16t15 6h45q25 0 30 -22l490 -1473q6 -23 -17 -22h-49q-20 0 -26 20z" />
<glyph unicode="]" horiz-adv-x="636" d="M104 -207q0 16 15 17h151q20 0 21 18v1438q0 16 -21 16h-151q-14 0 -15 18v74q0 18 15 19h280q16 0 17 -19v-1657q0 -16 -15 -16h-282q-14 0 -15 16v76z" />
<glyph unicode="^" horiz-adv-x="1075" d="M156 831l317 433q8 10 12 14t21 4h63q12 0 17.5 -4t13.5 -14l318 -430q14 -18 -9 -35l-32 -27q-6 -4 -15.5 -1t-19.5 13l-297 340q-10 10 -15 11q-6 0 -14 -11l-278 -338q-10 -10 -18.5 -16t-18.5 0l-41 29q-18 12 -4 32z" />
<glyph unicode="_" horiz-adv-x="1024" d="M-4 -186q0 16 18 16h996q16 0 16 -16v-62q0 -16 -14 -16h-998q-18 0 -18 16v62z" />
<glyph unicode="`" horiz-adv-x="860" d="M247 1257.5q-1 10.5 15 20.5l70 43q25 12 39 -14l147 -256q4 -10 4 -17.5t-12 -15.5l-31 -19q-10 -8 -19 -4t-16 13l-188 229q-8 10 -9 20.5z" />
<glyph unicode="a" horiz-adv-x="839" d="M70 293q0 63 20.5 120.5t61.5 98.5t101 65.5t138 24.5q115 0 189 -63q10 -8 19 -5t9 17v57q0 41 -10 76t-33.5 60.5t-62.5 40t-96 14.5q-23 0 -51.5 -4t-58.5 -10.5t-57.5 -14.5t-48.5 -18q-18 -10 -24 10l-27 65q-6 16 11 23q53 29 126.5 43t141.5 14q174 0 244.5 -84 t70.5 -231v-574q0 -18 -16 -18h-84q-14 0 -15 14v58q0 14 -7 15t-15 -7q-41 -47 -97.5 -69.5t-123.5 -22.5q-147 0 -226 85t-79 220zM186 297q0 -86 49.5 -145.5t157.5 -59.5q92 0 149.5 60.5t57.5 146.5q0 84 -52 143.5t-153 59.5q-98 0 -153.5 -59.5t-55.5 -145.5z" />
<glyph unicode="b" horiz-adv-x="882" d="M109 16v1270q0 18 18 19h90q16 0 16 -17v-452q0 -12 8.5 -18.5t18.5 5.5q37 35 93.5 58.5t138.5 23.5q86 0 145 -28.5t96 -76.5t53.5 -109.5t16.5 -125.5v-246q0 -72 -22.5 -132t-63.5 -104t-100.5 -68.5t-135.5 -24.5t-136 24.5t-93 57.5q-10 10 -18.5 8t-8.5 -14v-48 q0 -18 -18 -18h-80q-18 0 -18 16zM231 319q0 -96 62.5 -160.5t161.5 -64.5q111 0 166 63.5t55 164.5v243q0 47 -12.5 89t-38 74t-67.5 50.5t-101 18.5q-49 0 -90 -18.5t-72 -49.5t-47.5 -73t-16.5 -89v-248z" />
<glyph unicode="c" horiz-adv-x="792" d="M92 319v248q0 78 26.5 141.5t75 107.5t113 66.5t137.5 22.5q96 0 168 -36.5t125 -108.5q6 -8 6 -16q0 -11 -12 -19l-59 -43q-20 -12 -37 10q-35 49 -84 77t-109 28q-100 0 -162.5 -62.5t-62.5 -159.5v-258q0 -100 58.5 -159.5t166.5 -59.5q78 0 122 32t79 79q8 14 27 0 l59 -37q17 -10 17 -22q0 -6 -5 -13q-53 -82 -131 -115.5t-168 -33.5q-162 0 -256 89t-94 242z" />
<glyph unicode="d" horiz-adv-x="890" d="M96 319v246q0 66 21.5 127.5t62.5 108.5t103.5 75.5t142.5 28.5t132 -25.5t79 -56.5q12 -12 19.5 -7t7.5 18v452q0 18 16 19h92q18 0 19 -17v-1272q0 -16 -17 -16h-84q-16 0 -16 18v48q0 10 -9.5 14t-19.5 -6q-31 -33 -92 -58.5t-135 -25.5q-160 0 -241 91t-81 238z M221 322q0 -98 53.5 -162t169.5 -64q96 0 158 63.5t62 159.5l2 248q0 47 -16.5 88t-46.5 72t-69.5 49.5t-89.5 18.5q-113 0 -168 -68t-55 -162v-243z" />
<glyph unicode="e" horiz-adv-x="866" d="M96 317v246q0 78 27 141.5t73 108.5t109.5 69.5t136.5 24.5q76 0 140.5 -23.5t110.5 -68.5t72 -109.5t26 -146.5v-92q0 -20 -11.5 -31.5t-23.5 -11.5h-504q-31 0 -31 -31v-67q0 -96 60.5 -162t162.5 -66q66 0 115 28t84 75q14 20 35 6l57 -37q18 -12 13 -29 q-47 -78 -126 -115.5t-176 -37.5q-80 0 -144 23.5t-110.5 66.5t-71 104.5t-24.5 134.5zM223 551q0 -10 6.5 -17.5t22.5 -7.5h391q20 0 21 23v33q0 92 -60.5 154.5t-161.5 62.5q-47 0 -87 -17.5t-69.5 -46t-46 -68.5t-16.5 -85v-31z" />
<glyph unicode="f" horiz-adv-x="544" d="M37 805v74q0 16 16 16h88q23 0 23 20v142q0 119 66.5 189.5t185.5 70.5q39 0 76.5 -4t62.5 -13q12 -4 16 -9q2 -3 2 -7t-2 -10l-16 -74q-2 -18 -27 -12q-18 8 -44.5 12t-49.5 4q-84 0 -115.5 -47t-31.5 -119v-123q0 -20 18 -20h207q16 0 16 -16v-76q0 -14 -16 -15h-209 q-16 -2 -16 -20v-752q0 -16 -19 -16h-90q-16 0 -16 16v750q0 20 -17 22h-94q-14 0 -14 17z" />
<glyph unicode="g" horiz-adv-x="874" d="M74 588q0 63 27.5 121.5t73.5 101.5t107.5 68.5t129.5 25.5q59 0 118.5 -16.5t104.5 -54.5q10 -8 22 2q39 29 85 48t94 19q29 2 28 -26v-82q0 -16 -6 -20.5t-22 -2.5q-27 2 -56.5 -2t-52.5 -10q-14 -4 -8 -19q41 -66 41 -149q0 -74 -29 -134.5t-76 -103.5t-111.5 -66.5 t-133.5 -23.5q-23 0 -44.5 -1t-31.5 -5q-51 -20 -87 -64t-38 -92q0 -16 4 -20t18 0q29 6 63 12t66.5 9t60.5 5.5t44 2.5q72 0 143.5 -14.5t128 -47.5t91 -83t34.5 -124q0 -82 -50 -147.5t-126 -100.5q-7 -4 -14 -4q-11 0 -21 13l-35 55q-10 18 11 27q41 27 72.5 65.5 t31.5 85.5q0 45 -26.5 76t-65.5 49.5t-85 26.5t-85 8q-66 0 -145.5 -10.5t-157.5 -22.5q-23 -4 -33 2t-16 17q-29 45 -29 120q0 49 35 102.5t92 88.5q14 8 8 16t-16 15q-63 47 -98 112.5t-35 151.5zM195 584q0 -41 13 -81t40.5 -71t68.5 -49t95 -18q55 0 97 18t69.5 49 t42 71t14.5 83t-16.5 82t-45 68.5t-68.5 47t-87 17.5q-51 0 -92 -18.5t-71 -48t-45 -68.5t-15 -82z" />
<glyph unicode="h" horiz-adv-x="915" d="M115 16v1270q0 18 16 19h92q14 0 15 -19v-457q0 -14 8 -17t18 7q45 43 105.5 64.5t124.5 21.5q82 0 141 -26.5t98 -72.5t57.5 -107.5t18.5 -131.5v-549q0 -18 -16 -18h-95q-16 0 -16 16v549q0 96 -53.5 164t-167.5 68q-49 0 -90 -17.5t-70 -48.5t-45 -73t-16 -89v-551 q0 -18 -17 -18h-92q-16 0 -16 16z" />
<glyph unicode="i" horiz-adv-x="385" d="M109 1165q0 35 24.5 58.5t56.5 23.5q35 0 59.5 -23.5t24.5 -58.5t-23.5 -59.5t-57.5 -24.5q-35 0 -59.5 24.5t-24.5 59.5zM125 16v861q0 18 18 18h93q16 0 16 -18v-861q0 -16 -16 -16h-93q-18 0 -18 16z" />
<glyph unicode="j" horiz-adv-x="393" d="M-72 -336l15 74q2 14 26 12q16 -4 32.5 -5t29.5 -1q66 0 89 37t23 108v990q0 16 19 16h90q16 0 16 -16v-1002q0 -113 -52 -181.5t-171 -68.5q-59 0 -100 11q-18 5 -18 18q0 4 1 8zM123 1165q0 35 23.5 58.5t58.5 23.5t59.5 -23.5t24.5 -58.5t-24.5 -59.5t-57.5 -24.5 q-35 0 -59.5 24.5t-24.5 59.5z" />
<glyph unicode="k" horiz-adv-x="864" d="M111 14v1272q0 18 16 19h94q14 0 15 -17v-780q0 -18 7 -18.5t15 10.5l373 383q12 10 28 10h113q12 0 15.5 -7t-3.5 -16l-297 -309q-6 -6 -5 -12t12 -6h20t21 -2q66 -6 113.5 -32t80.5 -68t49.5 -98t20.5 -122l10 -194q0 -27 -23 -27h-81q-23 0 -23 23l-10 198 q-2 45 -13.5 85t-36 71t-65.5 48t-100 17q-49 0 -89 -17t-70 -46t-45 -68t-15 -82v-213q0 -16 -17 -16h-92q-18 0 -18 14z" />
<glyph unicode="l" horiz-adv-x="425" d="M135 211v1075q0 18 17 19h92q16 0 16 -17v-1063q0 -66 19.5 -92.5t74.5 -26.5h25q12 0 14 -7t2 -17v-72q0 -20 -18 -22q-16 -2 -28.5 -2h-18.5q-61 0 -99 16t-59.5 45t-29 71t-7.5 93z" />
<glyph unicode="m" horiz-adv-x="1400" d="M106 16v564q0 72 25 132t68 103t102 66.5t131 23.5q78 0 145.5 -31.5t114.5 -95.5q10 -14 23 -2q47 59 117.5 94t152.5 35q147 0 229 -89t82 -236v-562q0 -18 -16 -18h-92q-18 0 -19 16v564q0 45 -11 83.5t-35.5 68.5t-63.5 47.5t-92 17.5q-41 0 -78 -17.5t-64.5 -48.5 t-44 -69.5t-16.5 -81.5v-562q0 -18 -16 -18h-91q-18 0 -18 16v564q0 90 -53.5 153.5t-145.5 63.5q-106 0 -156.5 -63.5t-50.5 -153.5v-562q0 -18 -16 -18h-92q-18 0 -19 16z" />
<glyph unicode="n" horiz-adv-x="911" d="M111 16v861q0 18 16 18h88q14 0 14 -16v-54q0 -14 8.5 -16t18.5 8q98 88 231 88q82 0 141.5 -25.5t98.5 -71.5t58.5 -107.5t19.5 -133.5v-549q0 -18 -14 -18h-95q-16 0 -16 16v549q0 96 -53.5 164t-167.5 68q-100 0 -160.5 -64.5t-60.5 -163.5v-551q0 -18 -19 -18h-90 q-18 0 -18 16z" />
<glyph unicode="o" horiz-adv-x="890" d="M98 324v247q0 154 95.5 245t252.5 91q156 0 251.5 -89t95.5 -247v-243q0 -162 -92.5 -251t-254.5 -89t-255 88t-93 248zM223 326q0 -104 57.5 -167t165.5 -63q111 0 165.5 62.5t56.5 167.5v243q0 98 -57.5 163t-164.5 65q-109 0 -166 -63.5t-57 -162.5v-245z" />
<glyph unicode="p" horiz-adv-x="901" d="M113 -354v1233q0 16 16 16h84q16 0 16 -16v-60q0 -10 8.5 -10t18.5 10q35 35 93.5 60.5t133.5 25.5q152 0 238 -88t86 -242v-247q0 -68 -19.5 -129.5t-58.5 -108.5t-97.5 -75.5t-135.5 -28.5q-80 0 -136.5 23.5t-93.5 60.5q-14 12 -21 7t-7 -18v-411q0 -18 -17 -19h-92 q-16 0 -16 17zM238 326q0 -47 16 -89t45 -73t70 -49.5t90 -18.5q115 0 168 66.5t53 163.5v245q0 98 -52.5 162t-168.5 64q-98 0 -159.5 -62.5t-61.5 -159.5v-249z" />
<glyph unicode="q" horiz-adv-x="892" d="M94 291v282q0 74 23.5 135.5t67.5 104.5t105.5 67.5t137.5 24.5q78 0 131 -25.5t84 -60.5q10 -10 18.5 -7t8.5 15v52q0 16 18 16h82q18 0 18 -16v-1246q0 -18 -16 -18h-92q-18 0 -18 16v428q0 10 -7.5 16.5t-21.5 -5.5q-51 -41 -101.5 -62.5t-128.5 -21.5 q-84 0 -142 24.5t-95 66.5t-54.5 97t-17.5 117zM219 326q0 -47 10.5 -88t36 -73t67.5 -50.5t107 -18.5q49 0 90 18.5t70 49.5t45.5 73t16.5 89v247q0 98 -60.5 161t-159.5 63q-104 0 -163.5 -62.5t-59.5 -161.5v-247z" />
<glyph unicode="r" horiz-adv-x="559" d="M117 14v863q0 16 16 16h80q16 0 16 -16v-97q0 -12 7.5 -13t11.5 7q35 55 99.5 93t146.5 38q10 0 21 -1t24 -3q23 -4 20 -20l-18 -90q-4 -18 -19 -17q-12 2 -24.5 2h-24.5q-104 -4 -166.5 -67.5t-62.5 -173.5v-519q0 -16 -17 -16h-92q-18 0 -18 14z" />
<glyph unicode="s" horiz-adv-x="749" d="M59 172q-3 4 -3 8q0 8 12 13l73 34q14 6 23 -10q29 -57 88 -91t131 -34q80 0 131 39t51 98q0 66 -48 98.5t-111 57.5q-47 18 -102.5 37.5t-104.5 50.5t-82 76t-33 113q0 59 24.5 104t65.5 75.5t94.5 47t108.5 16.5q84 0 157.5 -27.5t127.5 -84.5q12 -14 -5 -31l-41 -47 q-16 -18 -36 2q-41 37 -95.5 59.5t-107.5 22.5q-31 0 -61.5 -8.5t-55 -23.5t-40 -38.5t-15.5 -56.5q0 -31 15.5 -54.5t40 -41t55 -31t61.5 -25.5q55 -20 110.5 -42.5t99.5 -54.5t71.5 -77t27.5 -113q0 -47 -19.5 -91t-58.5 -77.5t-97 -54t-136 -20.5q-100 0 -187.5 45 t-128.5 137z" />
<glyph unicode="t" horiz-adv-x="598" d="M35 803v74q0 18 16 18h99q20 0 20 20v189q0 14 16 20l88 21q4 2 7 2q5 0 9 -4q6 -6 5 -15v-215q0 -18 16 -18h207q18 0 19 -16v-74q0 -18 -19 -19h-205q-18 0 -18 -18v-508q0 -78 25.5 -118t93.5 -40q25 0 63.5 6.5t61.5 10.5q18 4 23 -1t7 -16l13 -63q2 -7 2 -11 q0 -6 -2 -8q-4 -4 -15 -8q-31 -14 -82 -19t-88 -5q-66 0 -109.5 18.5t-70.5 51t-37 78.5t-10 100v532q0 18 -20 18h-97q-18 0 -18 17z" />
<glyph unicode="u" horiz-adv-x="907" d="M100 322v555q0 18 17 18h94q14 0 14 -16v-553q0 -47 11.5 -88t36 -72t63.5 -49.5t94 -18.5q109 0 173.5 64.5t64.5 163.5v551q0 18 16 18h94q18 0 19 -16v-861q0 -18 -19 -18h-88q-16 0 -16 16v52q0 14 -7.5 17t-17.5 -7q-41 -43 -108.5 -66.5t-126.5 -23.5 q-82 0 -141.5 24.5t-97.5 69.5t-56.5 106.5t-18.5 133.5z" />
<glyph unicode="v" horiz-adv-x="794" d="M27 870q-1 6 -1 10q0 15 15 15h82q16 0 23.5 -6t11.5 -17l153 -456l78 -250q8 -23 17 -2l75 242l152 460q4 10 10 19.5t23 9.5h86q18 0 18 -15q0 -4 -2 -10l-303 -847q-4 -12 -8 -17.5t-21 -5.5h-76q-16 0 -22 4t-10 16z" />
<glyph unicode="w" horiz-adv-x="1196" d="M23 868q-1 6 -1 10q0 15 15 15h84q25 0 29 -25l106 -438l55 -237q2 -8 6.5 -7.5t6.5 7.5l67 231l133 440q6 29 31 29h72q23 0 30 -27l144 -454l65 -219q4 -6 7.5 -7.5t5.5 7.5l51 235l100 438q6 27 31 27h86q14 0 16 -6q1 -3 1 -7t-1 -10l-229 -847q-8 -23 -27 -23h-67 q-23 0 -29 18l-133 416l-80 262q-2 8 -5 9.5t-5 -9.5l-82 -272l-127 -404q-4 -14 -10.5 -17t-16.5 -3h-69q-23 0 -29 20z" />
<glyph unicode="x" horiz-adv-x="743" d="M25 25l260 415q12 18 11 28.5t-9 25.5l-234 374q-8 10 -4 18.5t17 8.5h86q16 0 23 -2t18 -19l174 -290q10 -16 20 2l172 288q10 16 17.5 18.5t23.5 2.5h86q27 0 12 -27l-237 -376q-10 -18 -7 -27.5t7 -18.5l268 -421q5 -9 5 -14q0 -11 -17 -11h-90q-14 0 -23.5 3 t-19.5 20l-199 329q-6 12 -11 8t-9 -8l-199 -329q-10 -16 -19.5 -19.5t-21.5 -3.5h-88q-19 0 -19 10q0 5 7 15z" />
<glyph unicode="y" horiz-adv-x="792" d="M24 888q3 9 19 9h80q16 0 23.5 -7t11.5 -18l207 -737q4 -10 10 -14t12 14l244 733q4 10 10 19.5t25 9.5h73q14 0 19 -9q4 -5 4 -11q0 -4 -2 -9l-404 -1210q-4 -10 -14 -21.5t-33 -11.5h-65q-25 0 -17 29l109 330q4 16 -10 16h-17q-29 0 -37 29l-247 839q-2 7 -2 13 q0 4 1 7z" />
<glyph unicode="z" horiz-adv-x="757" d="M61 25v41q0 29 13 43l426 655q18 25 -15 24h-387q-18 0 -18 17v72q0 18 16 18h547q18 0 24.5 -6t6.5 -23v-45q0 -27 -8 -43l-426 -647q-16 -25 14 -25h432q18 0 19 -16v-72q0 -18 -17 -18h-600q-27 0 -27 25z" />
<glyph unicode="{" horiz-adv-x="655" d="M74 522v68q0 18 10 23t27 14q143 59 143 219v270q0 154 76 219.5t217 63.5h33q16 0 16 -17v-73q0 -16 -16 -17h-31q-92 0 -131 -31.5t-39 -127.5l-2 -324q0 -72 -37 -137.5t-107 -100.5q-8 -4 -8 -10t8 -10q72 -31 108 -104.5t36 -149.5l2 -346q0 -47 9 -77t29.5 -46 t53.5 -22.5t78 -6.5h31q16 0 16 -16v-74q0 -18 -16 -18h-33q-141 0 -217 60.5t-76 215.5v307q0 78 -34 133.5t-105 84.5q-23 8 -32 13t-9 17z" />
<glyph unicode="|" horiz-adv-x="434" d="M168 -217v1583q0 18 16 18h62q16 0 16 -16v-1583q0 -18 -16 -18h-62q-16 0 -16 16z" />
<glyph unicode="}" horiz-adv-x="655" d="M63 -217q0 18 15 18h33q90 0 130 30t40 126v340q0 76 35.5 149.5t107.5 104.5q8 4 8 10t-8 10q-70 35 -106.5 100.5t-36.5 137.5v328q0 94 -40 124.5t-130 30.5h-33q-14 0 -15 17v73q0 16 17 17h33q143 2 219 -61.5t76 -217.5v-274q0 -82 33.5 -134.5t107.5 -84.5 q16 -8 25.5 -13.5t9.5 -23.5v-68q0 -12 -8.5 -17t-30.5 -13q-72 -29 -105.5 -84.5t-33.5 -133.5v-301q0 -156 -75 -219t-218 -61h-33q-16 0 -17 18v72z" />
<glyph unicode="~" d="M29 598q53 72 113.5 102.5t117.5 30.5q51 0 103.5 -18.5t99.5 -40.5q53 -27 105.5 -49.5t105.5 -22.5q47 -2 83 25.5t64 60.5q16 20 31 8l53 -41q14 -12 4 -28q-47 -66 -107.5 -104t-125.5 -38q-61 0 -122.5 26t-117.5 52q-43 23 -88 41.5t-86 18.5q-45 0 -83 -25 t-77 -70q-10 -10 -18 -2l-53 49q-12 12 -2 25z" />
<glyph unicode="&#xa1;" horiz-adv-x="522" d="M180 803q0 37 24.5 63.5t65.5 26.5q37 0 64.5 -26.5t27.5 -63.5q0 -35 -27.5 -61.5t-64.5 -26.5q-39 0 -64.5 25.5t-25.5 62.5zM203 -369l24 922q0 16 15 16h51q16 0 16 -14l33 -922q0 -18 -18 -18h-103q-18 0 -18 16z" />
<glyph unicode="&#xa2;" d="M152 319v234q0 141 73.5 234.5t202.5 111.5q10 2 17.5 5t7.5 22v108q0 16 18 17h49q18 0 19 -17v-112q0 -16 7 -18.5t15 -4.5q72 -10 129.5 -45t104.5 -92q14 -20 -7 -37l-57 -43q-20 -14 -37 8q-76 106 -198 107q-102 0 -161 -64.5t-59 -157.5v-260q0 -94 59.5 -155.5 t156.5 -61.5q80 0 123.5 31t84.5 80q10 12 29 0l59 -37q16 -10 17.5 -18.5t-4.5 -18.5q-45 -63 -105.5 -97t-132.5 -44q-8 0 -16 -2t-8 -23v-112q0 -16 -17 -17h-53q-16 0 -16 15v116q0 12 -8.5 16.5t-14.5 6.5q-133 16 -205.5 103t-72.5 222z" />
<glyph unicode="&#xa3;" d="M72 16v70q0 14 20 23q59 23 80 82t21 151v229q0 18 -19 19h-84q-16 0 -16 16v72q0 16 16 16h84q18 0 19 19v223q0 76 27.5 140.5t75.5 109.5t112.5 70.5t140.5 25.5q92 0 176 -35t135 -117q10 -18 -8 -30l-64 -41q-23 -14 -32 4q-35 55 -88.5 83t-118.5 28 q-102 0 -167 -63.5t-65 -162.5v-235q0 -18 21 -19h235q18 0 19 -16v-74q0 -14 -19 -14h-235q-18 0 -19 -21v-168q0 -37 -1 -77.5t-6 -77.5t-15 -70t-31 -55q-4 -4 -2 -8t8 -4h521q18 0 18 -19v-72q0 -18 -18 -18h-705q-16 0 -16 16z" />
<glyph unicode="&#xa4;" horiz-adv-x="1003" d="M127 199q0 4 4 12l92 90q12 14 9 25.5t-11 23.5q-23 35 -33 74t-10 80q0 82 45 160q10 14 11.5 21t-11.5 20q-20 23 -41.5 45t-42.5 45q-6 8 -6 12t6 10q12 14 25.5 26.5t28.5 24.5q6 6 10 6t10 -6l84 -88q12 -16 19.5 -12t21.5 10q68 41 158 41q88 0 159 -43 q16 -12 23.5 -9t17.5 9l88 84q6 6 15.5 10t19.5 -10l45 -43q8 -2 8 -10q0 -6 -6 -12l-92 -93q-14 -10 -14 -18t10 -22q47 -72 47 -160q0 -90 -47 -168q-6 -12 -7 -16.5t11 -16.5l88 -84q6 -6 6 -12t-4 -10l-51 -50q-8 -8 -14 -8q-8 0 -17 8l-84 80q-14 14 -18 13.5 t-21 -11.5q-35 -23 -76.5 -36t-84.5 -13q-45 0 -79 11.5t-71 37.5q-18 10 -29.5 9.5t-27.5 -17.5l-84 -82q-4 -6 -10 -6q-4 0 -6.5 2t-6.5 4l-53 49q-4 8 -4 13zM281 502q0 -45 17 -85t47 -69t69 -46t84 -17q92 0 154.5 62.5t62.5 154.5t-62.5 154.5t-154.5 62.5 q-45 0 -84 -17.5t-69 -46t-47 -68.5t-17 -85z" />
<glyph unicode="&#xa5;" d="M77 1256.5q1 7.5 15 7.5h90q14 0 19.5 -4.5t11.5 -16.5q37 -80 75 -157.5t72 -159.5l101 -234q4 -10 10 -12t10 10l113 260q33 74 66.5 146.5t66.5 144.5q8 12 13 17.5t22 5.5h82q16 0 17 -7.5t-3 -17.5l-244 -526q-12 -23 11 -23h221q16 0 16 -16v-56q0 -18 -16 -18 h-733q-16 0 -17 16v56q0 18 17 18h200q8 0 11.5 6t-0.5 13l-244 530q-4 10 -3 17.5zM96 434v55q0 16 17 17h733q16 0 16 -17v-55q0 -16 -16 -16h-297q-12 0 -15.5 -7.5t-3.5 -17.5v-377q0 -16 -16 -16h-90q-18 0 -18 14v379q0 8 -3.5 15.5t-19.5 7.5h-270q-16 0 -17 18z" />
<glyph unicode="&#xa6;" horiz-adv-x="434" d="M168 -217v733q0 16 18 16h60q18 0 18 -14l-2 -735q0 -16 -16 -16h-62q-16 0 -16 16zM168 629v737q0 18 16 18h62q16 0 16 -16v-739q0 -14 -16 -15h-62q-16 0 -16 15z" />
<glyph unicode="&#xa7;" horiz-adv-x="880" d="M127 -23q-10 14 4 29l45 41q12 10 22.5 13t20.5 -11q39 -39 103.5 -65.5t130.5 -26.5q39 0 77.5 8t70.5 25.5t51.5 44t19.5 65.5q0 37 -19.5 63.5t-52.5 48t-79 39t-97 36.5q-61 20 -112.5 45.5t-89.5 56.5t-59.5 71t-21.5 89q0 78 46 131t126 86q12 4 19.5 3t13.5 -15 l19 -43q6 -14 5 -20.5t-18 -16.5q-43 -18 -69.5 -51t-26.5 -66q0 -49 47 -88t156 -78q68 -23 128 -48.5t106 -57t73 -75.5t27 -104q0 -61 -28 -107t-75 -79t-109.5 -49t-134.5 -16q-94 0 -180 32.5t-139 89.5zM147 1102q0 106 83 173.5t237 67.5q86 0 156.5 -28.5 t124.5 -85.5q10 -6 6 -14.5t-11 -14.5l-45 -47q-18 -18 -36 2q-39 41 -92.5 64.5t-106.5 23.5q-96 0 -147.5 -39t-51.5 -92t46 -91t153 -77q68 -25 125 -48.5t99 -55t65.5 -73.5t23.5 -103q0 -82 -42 -138.5t-111 -85.5q-18 -8 -29 11l-25 57q-4 10 -3 16t14 11q35 23 57 49 t22 73q0 37 -17 65t-49 49.5t-75 37.5t-92 35q-59 20 -110.5 44.5t-88.5 54.5t-58.5 69t-21.5 90z" />
<glyph unicode="&#xa8;" horiz-adv-x="882" d="M199 1133q0 33 22.5 56t54.5 23q33 0 55.5 -23t22.5 -56q0 -35 -22.5 -57.5t-55.5 -22.5t-55 23.5t-22 56.5zM520 1133q0 33 23.5 56t56.5 23t55.5 -23t22.5 -56t-21.5 -56.5t-54.5 -23.5q-35 0 -58.5 23.5t-23.5 56.5z" />
<glyph unicode="&#xa9;" horiz-adv-x="1441" d="M127 489v285q0 113 44 203t123 153.5t188.5 98.5t242.5 35q131 0 241.5 -33t190.5 -95.5t124 -153.5t44 -208v-285q0 -117 -44 -208t-124 -153t-190.5 -95t-241.5 -33q-133 0 -242.5 34t-188.5 97.5t-123 154.5t-44 203zM201 483q0 -84 32.5 -160.5t98 -134t164 -91.5 t227.5 -34q127 0 226.5 34t167 90.5t102 133t34.5 162.5v297q0 88 -34.5 165t-102 133.5t-167 89t-226.5 32.5q-129 0 -227.5 -33.5t-164 -91t-98 -133.5t-32.5 -162v-297zM485 498v239q0 109 71 173.5t183 64.5q149 -1 217 -107q6 -12 -4 -20l-45 -29q-16 -10 -24 4 q-23 35 -61 55.5t-85 20.5q-72 0 -119 -45t-47 -117v-235q0 -72 47.5 -118t118.5 -46q43 0 81 19.5t63 52.5q12 18 26 8l47 -31q10 -10 2 -20q-82 -104 -219 -105q-115 0 -183.5 61.5t-68.5 174.5z" />
<glyph unicode="&#xaa;" horiz-adv-x="567" d="M37 682q0 92 63.5 146.5t161.5 54.5q78 -4 123 -45q2 0 4 -2q4 0 4 4v30q0 49 -30.5 81t-104.5 32q-27 0 -64.5 -7t-68.5 -20q-23 -8 -29 11l-12 39q-6 20 14 28q35 16 83 26.5t91 10.5q115 0 171.5 -56.5t56.5 -152.5v-350q0 -25 -19 -25h-57q-20 0 -21 19v24q0 4 -2 5 q-8 0 -20 -13q-27 -18 -57.5 -29.5t-65.5 -11.5q-102 0 -161.5 53.5t-59.5 147.5zM137 684q0 -49 36 -85t89 -36q57 0 91 37t34 84t-36 82t-89 35t-89 -35t-36 -82z" />
<glyph unicode="&#xab;" horiz-adv-x="948" d="M118 412q1 14 13 30l248 308q10 12 19.5 18t29.5 6h78q35 0 14 -29l-258 -321q-10 -10 -9 -16.5t9 -14.5l256 -319q10 -12 4 -22.5t-16 -10.5h-76q-18 0 -28.5 6t-26.5 23l-244 305q-14 23 -13 37zM451 412q0 14 14 30l248 308q10 12 18 18t31 6h76q39 0 14 -29 l-258 -321q-10 -10 -8 -16.5t8 -14.5l256 -319q10 -12 5 -22.5t-17 -10.5h-74q-16 0 -27.5 6t-25.5 23l-244 305q-16 23 -16 37z" />
<glyph unicode="&#xac;" d="M74 459v55q0 25 24 25h746q25 0 24 -25v-403q0 -23 -22 -23h-68q-23 0 -22 23v313q0 12 -13 12h-645q-25 0 -24 23z" />
<glyph unicode="&#xad;" horiz-adv-x="653" d="M115 451v75q0 16 16 17h379q16 0 16 -17v-75q0 -18 -14 -19h-379q-18 0 -18 19z" />
<glyph unicode="&#xae;" horiz-adv-x="831" d="M84 897v154q0 125 90 197.5t238 72.5q72 0 132 -18.5t104 -52t68.5 -85t24.5 -114.5v-154q0 -129 -92 -198.5t-237 -69.5q-74 0 -134.5 18.5t-103.5 54t-66.5 85t-23.5 110.5zM135 895q0 -43 17.5 -83t52.5 -70.5t86 -48t121 -17.5q135 0 206.5 64.5t71.5 154.5v160 q0 92 -71.5 155.5t-206.5 63.5q-70 0 -121 -17.5t-86 -47t-52.5 -69.5t-17.5 -85v-160zM305 797v352q0 14 14 14h111q57 0 88 -29.5t31 -76.5q0 -33 -19.5 -59.5t-35.5 -36.5q-10 -6 -10.5 -11.5t3.5 -15.5l62 -129q2 -4 4 -12.5t-14 -8.5h-31q-14 0 -23 15l-63 133 q-4 12 -19 12h-32q-10 0 -11 -12v-133q0 -14 -8 -15h-37q-10 0 -10 13zM360 999q0 -8 13 -8h57q20 0 41 16.5t21 45.5t-16.5 45t-45.5 16h-57q-4 0 -8.5 -1t-4.5 -11v-103z" />
<glyph unicode="&#xaf;" horiz-adv-x="839" d="M213 1087v64q0 18 14 18h404q18 0 18 -16v-66q0 -16 -16 -16h-404q-16 0 -16 16z" />
<glyph unicode="&#xb0;" horiz-adv-x="620" d="M78 1075q0 45 17.5 85t47 70t69.5 46t87 16q115 0 174 -62.5t59 -154.5q0 -45 -18 -84t-50 -67.5t-74 -45t-89 -16.5t-88 16.5t-70.5 44t-47 66.5t-17.5 86zM166 1075q0 -57 37 -98t96 -41t101 40t42 99t-38.5 100.5t-104.5 41.5q-53 0 -93 -41t-40 -101z" />
<glyph unicode="&#xb1;" d="M70 111v53q0 25 22 24h758q25 0 24 -24v-51q0 -25 -24 -25h-758q-23 0 -22 23zM76 676v51q0 25 24 25h308q10 0 10 10v317q0 25 22 25h56q25 0 24 -25v-315q0 -12 12 -12h314q25 0 24 -25v-51q0 -25 -24 -25h-314q-12 0 -12 -8v-319q0 -23 -22 -23h-56q-25 0 -24 23v317 q0 10 -10 10h-308q-25 0 -24 25z" />
<glyph unicode="&#xb2;" horiz-adv-x="612" d="M37 696v29q0 12 1 20.5t11 18.5l305 373q27 35 42.5 64.5t15.5 55.5q0 51 -34 82t-97 31q-41 0 -78 -19.5t-56 -37.5q-10 -10 -18 -15.5t-18 5.5l-43 32q-10 6 -8.5 14.5t10.5 14.5q39 47 98 69.5t119 22.5q98 0 161.5 -51t63.5 -143q0 -47 -25.5 -92.5t-62.5 -90.5 l-252 -309q0 -2 -2 -2t-2 -4q0 -6 10 -6h322q20 0 20 -19v-45q0 -20 -20 -20h-439q-25 0 -24 22z" />
<glyph unicode="&#xb3;" horiz-adv-x="612" d="M57 768q-12 16 6 31l41 22q23 16 37 -4q49 -66 123 -65q63 0 101 37.5t38 91.5v55q0 49 -32.5 82t-87.5 33h-84q-16 0 -19.5 4t-3.5 14v47q0 14 3 18.5t16 4.5h88q49 0 83.5 29.5t34.5 82.5q0 49 -34.5 82t-94.5 33q-41 0 -69.5 -15.5t-48.5 -37.5q-12 -10 -17.5 -18.5 t-17.5 1.5l-45 31q-20 12 -4 37q35 45 88 67.5t114 22.5q109 0 171.5 -55.5t62.5 -145.5q0 -47 -23.5 -90t-62.5 -69q-4 -4 0 -9q45 -18 66.5 -61t21.5 -84v-49q0 -104 -66.5 -165.5t-177.5 -61.5q-68 0 -120 23.5t-87 80.5z" />
<glyph unicode="&#xb4;" horiz-adv-x="860" d="M367 1033q0 7 4 16l147 258q6 10 17.5 15t21.5 -1l68 -43q18 -10 17 -20.5t-9 -18.5l-189 -231q-6 -6 -15 -11.5t-19 2.5l-33 19q-10 8 -10 15z" />
<glyph unicode="&#xb6;" horiz-adv-x="872" d="M68 975q0 68 24.5 126t68.5 103t103.5 70.5t128.5 25.5h168q16 0 17 -16v-614q0 -16 -17 -17h-168q-72 0 -131 24.5t-102 69t-67.5 102.5t-24.5 126zM412 -121q-4 16 12 21q80 8 127 29.5t71.5 52t33 71.5t8.5 92v1139q0 16 16 16h68q16 0 16 -16v-1126 q0 -78 -15.5 -139.5t-52.5 -106.5t-100.5 -70.5t-161.5 -34.5q-14 0 -16 15z" />
<glyph unicode="&#xb7;" horiz-adv-x="387" d="M104 477q0 35 27 62.5t62 27.5q39 0 65.5 -27.5t26.5 -62.5q0 -37 -26 -64.5t-66 -27.5q-35 0 -62 26.5t-27 65.5z" />
<glyph unicode="&#xb8;" horiz-adv-x="798" d="M285 -352q0 4 6 14l22 33q8 10 21 4q25 -14 50.5 -23.5t55.5 -9.5q51 0 77 23.5t26 52.5q0 10 -3 23.5t-12.5 25.5t-27 20.5t-47.5 8.5h-50q-74 0 -59 57l37 135q2 4 5 12.5t13 8.5h50q10 0 10 -13l-27 -108q-6 -20 12 -21h25q70 0 115 -38.5t45 -108.5 q0 -59 -49.5 -104.5t-135.5 -45.5q-47 0 -86 11.5t-67 32.5q-6 6 -6 10z" />
<glyph unicode="&#xb9;" horiz-adv-x="497" d="M84 1268v57q0 20 18 33l150 80q14 10 29 10h34q16 0 19.5 -7t3.5 -18v-727q0 -25 -25 -24h-59q-23 0 -23 22v615q0 10 -8 4l-108 -58q-10 -6 -20.5 -3t-10.5 16z" />
<glyph unicode="&#xba;" horiz-adv-x="602" d="M59 698v156q0 98 65.5 157.5t176.5 59.5t176.5 -57.5t65.5 -159.5v-152q0 -106 -64.5 -163.5t-177.5 -57.5q-115 0 -178.5 57.5t-63.5 159.5zM166 698q0 -55 37 -91t98 -36q63 0 98 36t39 95v152q0 53 -38 89t-99 36q-59 0 -97 -36t-38 -89v-156z" />
<glyph unicode="&#xbb;" horiz-adv-x="948" d="M107 762.5q4 9.5 20 9.5h78q23 0 31 -7t18 -17l248 -310q14 -16 14 -30.5t-16 -36.5l-244 -303q-14 -18 -25.5 -24.5t-27.5 -6.5h-76q-12 0 -17.5 10t5.5 25l256 317q6 10 8 15.5t-8 17.5l-258 321q-10 10 -6 19.5zM440 762.5q4 9.5 21 9.5h76q20 0 29 -7t20 -17 l248 -310q12 -16 13 -30.5t-13 -36.5l-244 -303q-16 -18 -26.5 -24.5t-28.5 -6.5h-74q-10 0 -16.5 10t4.5 25l258 317q6 10 7 15.5t-7 17.5l-261 321q-10 10 -6 19.5z" />
<glyph unicode="&#xbc;" horiz-adv-x="1382" d="M131 1083v58q0 20 19 33l149 79q14 10 29 11h34q16 0 19.5 -7.5t3.5 -17.5v-727q0 -25 -25 -25h-59q-23 0 -22 23v614q0 10 -9 4l-108 -57q-10 -6 -20.5 -3t-10.5 15zM279 -45l575 1356q4 10 10 12t13 2h45q16 0 18 -5t-2 -15l-573 -1352q-4 -10 -9.5 -12t-13.5 -2h-53 q-16 0 -10 16zM682 193v28q0 16 2 24.5t8 18.5l281 506q4 2 7 4t9 2h74q12 0 12 -10q0 -4 -2 -6q-66 -123 -132.5 -243t-133.5 -243l-2 -4q0 -8 12 -8h197q6 0 10 6v219q0 12 12 13h72q12 0 12 -13v-211q0 -6 1 -10t12 -4h94q12 0 12 -10v-62q0 -8 -4 -8q-8 -2 -23 -2h-75 q-16 0 -17 -16v-152q0 -12 -12 -12h-72q-12 0 -12 12v154q0 14 -14 14h-312q-16 0 -16 13z" />
<glyph unicode="&#xbd;" horiz-adv-x="1382" d="M135 1083v58q0 20 19 33l149 79q14 10 29 11h35q16 0 19 -7.5t3 -17.5v-727q0 -25 -24 -25h-60q-23 0 -22 23v614q0 10 -9 4l-108 -57q-10 -6 -20.5 -3t-10.5 15zM260 -45l576 1356q4 10 10 12t12 2h45q16 0 18.5 -5t-1.5 -15l-574 -1352q-4 -10 -9 -12t-13 -2h-54 q-16 0 -10 16zM756 23v28q0 10 1 19.5t11 19.5l303 373q29 33 44 63.5t15 57.5q0 49 -33.5 80.5t-97.5 31.5q-43 0 -79.5 -19.5t-55.5 -37.5q-10 -10 -17 -15.5t-18 3.5l-43 35q-14 12 5 26q39 47 97 71.5t118 24.5q98 0 160.5 -52t62.5 -144q0 -47 -24.5 -92t-61.5 -90 l-254 -312q0 -2 -1 -2t-1 -2q0 -6 10 -6h322q20 0 20 -21v-43q0 -20 -20 -20h-439q-16 0 -20 5t-4 18z" />
<glyph unicode="&#xbe;" horiz-adv-x="1382" d="M74 584q-12 16 6 30l41 23q23 16 37 -4q49 -66 123 -66q63 0 101 38t38 91v56q0 49 -33 81.5t-88 32.5h-84q-16 0 -19 4t-3 15v47q0 14 3 18t15 4h88q49 0 84 30t35 83q0 49 -35 82t-94 33q-41 0 -70 -15.5t-49 -38.5q-12 -10 -17.5 -18t-17.5 2l-45 31q-20 12 -4 37 q35 45 88 67.5t115 22.5q109 0 171 -55.5t62 -145.5q0 -47 -23.5 -90t-62.5 -70q-4 -4 0 -8q45 -18 66.5 -61t21.5 -84v-49q0 -104 -66.5 -166t-176.5 -62q-68 0 -120 23.5t-87 81.5zM348 -45l576 1356q4 10 10 12t12 2h45q16 0 18.5 -5t-1.5 -15l-574 -1352q-4 -10 -9 -12 t-13 -2h-54q-16 0 -10 16zM719 193v28q0 16 2 24.5t8 18.5l281 506q4 2 7 4t9 2h74q12 0 12 -10q0 -4 -2 -6q-66 -123 -132.5 -243t-133.5 -243l-2 -4q0 -8 12 -8h197q6 0 10 6v219q0 12 12 13h72q12 0 12 -13v-211q0 -6 1 -10t11 -4h95q12 0 12 -10v-62q0 -8 -4 -8 q-8 -2 -23 -2h-75q-16 0 -17 -16v-152q0 -12 -12 -12h-72q-12 0 -12 12v154q0 14 -14 14h-312q-16 0 -16 13z" />
<glyph unicode="&#xbf;" horiz-adv-x="956" d="M166 -96q0 92 51 175t152 148q92 57 137 111.5t45 138.5v70q0 23 14 22h88q12 0 17.5 -4t5.5 -20v-88q0 -78 -40 -152t-118 -127q-94 -63 -157.5 -125.5t-63.5 -144.5q0 -35 11 -72t36 -67.5t65 -50t99 -19.5q63 0 116.5 32.5t88.5 78.5q14 20 32 4l66 -41q18 -12 4 -29 q-49 -78 -132 -118t-179 -40q-72 0 -134.5 21.5t-107.5 62.5t-70.5 99.5t-25.5 134.5zM524 799q0 37 25.5 64.5t66.5 27.5q37 0 64 -27.5t27 -64.5q0 -35 -27 -61.5t-64 -26.5q-41 0 -66.5 24.5t-25.5 63.5z" />
<glyph unicode="&#xc0;" horiz-adv-x="923" d="M35 25l330 1218q4 20 24 21h137q18 0 25 -19l336 -1216q4 -10 3 -19.5t-18 -9.5h-94q-18 0 -24 14l-78 281q-2 8 -10 8h-416q-10 0 -12 -6q-4 -23 -14.5 -60.5t-23 -80.5t-22.5 -82t-16 -60q-2 -14 -23 -14h-84q-12 0 -18 4t-2 21zM155 1478.5q-5 8.5 9 24.5l49 68 q18 18 41 0l227 -191q18 -14 4 -32l-22 -27q-8 -10 -17.5 -10t-17.5 4l-258 151q-10 4 -15 12.5zM270 428q-2 -14 9 -14h354q14 0 12 14l-117 428l-65 264q-2 6 -5 6t-5 -6l-66 -262z" />
<glyph unicode="&#xc1;" horiz-adv-x="923" d="M35 25l330 1218q4 20 24 21h137q18 0 25 -19l336 -1216q4 -10 3 -19.5t-18 -9.5h-94q-18 0 -24 14l-78 281q-2 8 -10 8h-416q-10 0 -12 -6q-4 -23 -14.5 -60.5t-23 -80.5t-22.5 -82t-16 -60q-2 -14 -23 -14h-84q-12 0 -18 4t-2 21zM270 428q-2 -14 9 -14h354q14 0 12 14 l-117 428l-65 264q-2 6 -5 6t-5 -6l-66 -262zM397 1356q-12 18 4 30l230 191q23 16 39 0l49 -70q10 -12 7 -21t-13 -16l-262 -147q-8 -4 -17.5 -4t-17.5 10z" />
<glyph unicode="&#xc2;" horiz-adv-x="923" d="M35 25l330 1218q4 20 24 21h137q18 0 25 -19l336 -1216q4 -10 3 -19.5t-18 -9.5h-94q-18 0 -24 14l-78 281q-2 8 -10 8h-416q-10 0 -12 -6q-4 -23 -14.5 -60.5t-23 -80.5t-22.5 -82t-16 -60q-2 -14 -23 -14h-84q-12 0 -18 4t-2 21zM193 1352q-12 10 0 22l190 191 q10 10 19.5 14t25.5 4h59q16 0 25.5 -4t19.5 -14l195 -195q4 -6 2 -12t-6 -8l-27 -21q-14 -10 -37 4l-188 127q-14 10 -33 0l-182 -127q-8 -6 -17.5 -8t-19.5 6zM270 428q-2 -14 9 -14h354q14 0 12 14l-117 428l-65 264q-2 6 -5 6t-5 -6l-66 -262z" />
<glyph unicode="&#xc3;" horiz-adv-x="923" d="M35 25l330 1218q4 20 24 21h137q18 0 25 -19l336 -1216q4 -10 3 -19.5t-18 -9.5h-94q-18 0 -24 14l-78 281q-2 8 -10 8h-416q-10 0 -12 -6q-4 -23 -14.5 -60.5t-23 -80.5t-22.5 -82t-16 -60q-2 -14 -23 -14h-84q-12 0 -18 4t-2 21zM165 1390.5q1 8.5 5 16.5 q27 47 64.5 80t87.5 33q31 0 59.5 -11.5t56 -23.5t53 -23.5t50.5 -11.5q27 0 47 18.5t37 44.5q4 6 7 9.5t13 -2.5l51 -23q16 -6 6 -29q-31 -63 -74.5 -87.5t-80.5 -24.5q-33 0 -62.5 10t-58.5 23.5t-55.5 23.5t-53.5 10q-20 0 -40.5 -17t-32.5 -42q-10 -16 -31 -8l-41 22 q-8 4 -7 12.5zM270 428q-2 -14 9 -14h354q14 0 12 14l-117 428l-65 264q-2 6 -5 6t-5 -6l-66 -262z" />
<glyph unicode="&#xc4;" horiz-adv-x="923" d="M35 25l330 1218q4 20 24 21h137q18 0 25 -19l336 -1216q4 -10 3 -19.5t-18 -9.5h-94q-18 0 -24 14l-78 281q-2 8 -10 8h-416q-10 0 -12 -6q-4 -23 -14.5 -60.5t-23 -80.5t-22.5 -82t-16 -60q-2 -14 -23 -14h-84q-12 0 -18 4t-2 21zM219 1438q0 35 23.5 57.5t56.5 22.5 t55.5 -22.5t22.5 -57.5t-22.5 -57.5t-55.5 -22.5t-56.5 22.5t-23.5 57.5zM270 428q-2 -14 9 -14h354q14 0 12 14l-117 428l-65 264q-2 6 -5 6t-5 -6l-66 -262zM545 1438q0 35 22.5 57.5t55.5 22.5t55 -22.5t22 -57.5t-22.5 -57.5t-54.5 -22.5q-33 0 -55.5 22.5t-22.5 57.5z " />
<glyph unicode="&#xc5;" horiz-adv-x="923" d="M35 25l330 1218q4 20 24 21h137q18 0 25 -19l336 -1216q4 -10 3 -19.5t-18 -9.5h-94q-18 0 -24 14l-78 281q-2 8 -10 8h-416q-10 0 -12 -6q-4 -23 -14.5 -60.5t-23 -80.5t-22.5 -82t-16 -60q-2 -14 -23 -14h-84q-12 0 -18 4t-2 21zM270 428q-2 -14 9 -14h354q14 0 12 14 l-117 428l-65 264q-2 6 -5 6t-5 -6l-66 -262zM301 1473q0 68 45 115.5t113 47.5q66 0 112.5 -45.5t46.5 -113.5q0 -66 -46 -113t-113 -47q-66 0 -112 45t-46 111zM375 1475q0 -37 24.5 -63t59.5 -26t61.5 26t26.5 63t-26.5 63.5t-61.5 26.5t-59.5 -27t-24.5 -63z" />
<glyph unicode="&#xc6;" horiz-adv-x="1417" d="M41 29q18 49 53 144t78 214t89 248t89 247.5t78 214t53 144.5q2 6 9.5 14.5t25.5 8.5h817q20 0 21 -19v-74q0 -20 -19 -20h-520q-18 0 -18 -14v-416q0 -14 16 -14h430q18 0 19 -21v-76q0 -18 -17 -18h-430q-18 0 -18 -17v-446q0 -16 16 -16h526q18 0 19 -17v-76 q0 -20 -19 -20h-651q-20 0 -20 18v273q0 10 -2 18t-19 8h-364q-10 0 -15 -10l-102 -289q-6 -18 -25 -18h-84q-27 0 -16 29zM315 446q-6 -14 11 -14h319q23 0 23 23v682q0 14 -17 14h-69q-18 0 -25 -16z" />
<glyph unicode="&#xc7;" horiz-adv-x="864" d="M119 328v612q0 76 26.5 138.5t75.5 107.5t117 69.5t147 24.5q94 0 179.5 -30.5t150.5 -110.5q14 -18 -4 -37l-57 -47q-8 -8 -19.5 -6t-17.5 12q-39 47 -101.5 75.5t-128.5 28.5q-111 0 -174 -64.5t-63 -162.5v-606q0 -98 64.5 -165t181.5 -67q66 0 124 29t97 70 q10 12 19 17t24 -5l55 -47q16 -12 4 -29q-57 -72 -138 -107.5t-175 -39.5l-19 -76q-6 -20 13 -21h24q70 0 115 -38.5t45 -108.5q0 -59 -49 -104.5t-135 -45.5q-47 0 -86 11.5t-68 32.5q-6 6 -6 10t6 14l23 33q8 10 20 4q25 -14 50.5 -23.5t56.5 -9.5q51 0 76.5 23.5 t25.5 52.5q0 10 -3 23.5t-12.5 25.5t-26.5 20.5t-48 8.5h-49q-74 0 -60 57l31 115q-141 16 -226 104t-85 232z" />
<glyph unicode="&#xc8;" horiz-adv-x="890" d="M123 20v1223q0 20 22 21h648q20 0 20 -21v-74q0 -18 -20 -18h-523q-16 0 -16 -14v-410q0 -14 14 -14h445q20 0 20 -21v-76q0 -18 -18 -18h-445q-16 0 -16 -16v-453q0 -14 14 -14h541q20 0 20 -19v-76q0 -20 -20 -20h-664q-23 0 -22 20zM208 1478.5q-5 8.5 9 24.5l49 68 q18 18 41 0l228 -191q18 -14 4 -32l-23 -27q-8 -10 -17.5 -10t-17.5 4l-258 151q-10 4 -15 12.5z" />
<glyph unicode="&#xc9;" horiz-adv-x="890" d="M123 20v1223q0 20 22 21h648q20 0 20 -21v-74q0 -18 -20 -18h-523q-16 0 -16 -14v-410q0 -14 14 -14h445q20 0 20 -21v-76q0 -18 -18 -18h-445q-16 0 -16 -16v-453q0 -14 14 -14h541q20 0 20 -19v-76q0 -20 -20 -20h-664q-23 0 -22 20zM352 1356q-12 18 4 30l230 191 q23 16 39 0l49 -70q10 -12 7 -21t-13 -16l-262 -147q-8 -4 -17.5 -4t-17.5 10z" />
<glyph unicode="&#xca;" horiz-adv-x="890" d="M123 20v1223q0 20 22 21h648q20 0 20 -21v-74q0 -18 -20 -18h-523q-16 0 -16 -14v-410q0 -14 14 -14h445q20 0 20 -21v-76q0 -18 -18 -18h-445q-16 0 -16 -16v-453q0 -14 14 -14h541q20 0 20 -19v-76q0 -20 -20 -20h-664q-23 0 -22 20zM186 1352q-12 10 0 22l191 191 q10 10 19.5 14t25.5 4h59q16 0 25.5 -4t19.5 -14l195 -195q4 -6 2 -12t-6 -8l-27 -21q-14 -10 -37 4l-188 127q-14 10 -33 0l-182 -127q-8 -6 -17.5 -8t-19.5 6z" />
<glyph unicode="&#xcb;" horiz-adv-x="890" d="M123 20v1223q0 20 22 21h648q20 0 20 -21v-74q0 -18 -20 -18h-523q-16 0 -16 -14v-410q0 -14 14 -14h445q20 0 20 -21v-76q0 -18 -18 -18h-445q-16 0 -16 -16v-453q0 -14 14 -14h541q20 0 20 -19v-76q0 -20 -20 -20h-664q-23 0 -22 20zM217 1438q0 35 23.5 57.5 t56.5 22.5t55.5 -22.5t22.5 -57.5t-22.5 -57.5t-55.5 -22.5t-56.5 22.5t-23.5 57.5zM543 1438q0 35 22.5 57.5t55.5 22.5t55 -22.5t22 -57.5t-22.5 -57.5t-54.5 -22.5q-33 0 -55.5 22.5t-22.5 57.5z" />
<glyph unicode="&#xcc;" horiz-adv-x="452" d="M-78.5 1478.5q-5.5 8.5 8.5 24.5l50 68q18 18 40 0l228 -191q18 -14 4 -32l-23 -27q-8 -10 -17 -10t-17 4l-258 151q-10 4 -15.5 12.5zM158 18v1227q0 18 20 19h92q20 0 21 -19v-1225q0 -20 -21 -20h-92q-20 0 -20 18z" />
<glyph unicode="&#xcd;" horiz-adv-x="452" d="M158 18v1227q0 18 20 19h92q20 0 21 -19v-1225q0 -20 -21 -20h-92q-20 0 -20 18zM184 1356q-12 18 4 30l230 191q23 16 39 0l49 -70q10 -12 7 -21t-13 -16l-262 -147q-8 -4 -17.5 -4t-17.5 10z" />
<glyph unicode="&#xce;" horiz-adv-x="452" d="M-41 1362q-12 10 0 22l191 191q10 10 19 14t26 4h59q16 0 25.5 -4t19.5 -14l195 -195q4 -6 2 -12t-7 -8l-26 -21q-14 -10 -37 4l-188 127q-14 10 -33 0l-182 -127q-8 -6 -17.5 -8t-19.5 6zM158 18v1227q0 18 20 19h92q20 0 21 -19v-1225q0 -20 -21 -20h-92q-20 0 -20 18z " />
<glyph unicode="&#xcf;" horiz-adv-x="452" d="M-23 1438q0 35 24 57.5t56 22.5q33 0 55.5 -22.5t22.5 -57.5t-22.5 -57.5t-55.5 -22.5t-56.5 22.5t-23.5 57.5zM158 18v1227q0 18 20 19h92q20 0 21 -19v-1225q0 -20 -21 -20h-92q-20 0 -20 18zM303 1438q0 35 22.5 57.5t55.5 22.5t55.5 -22.5t22.5 -57.5t-22.5 -57.5 t-55.5 -22.5t-55.5 22.5t-22.5 57.5z" />
<glyph unicode="&#xd0;" horiz-adv-x="989" d="M14 621v55q0 20 19 20h76q10 0 13 3t3 16v528q0 20 20 21h375q176 0 268.5 -90.5t92.5 -260.5v-551q0 -178 -94.5 -270t-268.5 -92h-373q-20 0 -20 20v562q0 18 -16 18h-76q-18 0 -19 21zM256 129q0 -14 16 -14h248q111 0 169.5 59t58.5 170v578q0 111 -56.5 170 t-179.5 59h-240q-16 0 -16 -14v-422q0 -18 18 -19h209q18 0 19 -20v-55q0 -20 -19 -21h-211q-16 0 -16 -12v-459z" />
<glyph unicode="&#xd1;" horiz-adv-x="1040" d="M123 20v1205q0 18 5 28.5t28 10.5h59q20 0 27.5 -8.5t15.5 -18.5l533 -973q2 -4 4 -4t2 4v979q0 20 18 21h88q18 0 19 -19v-1212q0 -20 -10.5 -26.5t-20.5 -6.5h-64q-18 0 -26 6t-15 19l-532 968q-2 4 -4 4t-2 -4v-973q0 -20 -21 -20h-86q-18 0 -18 20zM249 1380.5 q1 8.5 5 16.5q27 47 64.5 79.5t87.5 32.5q31 0 59.5 -11t56 -23.5t53 -23.5t50.5 -11q27 0 47 18.5t37 44.5q4 6 7 9.5t13 -3.5l51 -22q16 -6 6 -29q-31 -63 -74.5 -87.5t-80.5 -24.5q-33 0 -62.5 10t-58.5 23.5t-55.5 23.5t-53.5 10q-20 0 -40.5 -17.5t-32.5 -41.5 q-10 -16 -31 -8l-41 22q-8 4 -7 12.5z" />
<glyph unicode="&#xd2;" horiz-adv-x="997" d="M119 338v596q0 78 28.5 141.5t78.5 109.5t120 70.5t152 24.5t151.5 -23.5t120.5 -68.5t80 -109.5t29 -144.5v-600q0 -80 -28 -144.5t-77 -108.5t-118.5 -68.5t-155.5 -24.5q-174 0 -277.5 94t-103.5 256zM228.5 1482.5q-5.5 8.5 9.5 24.5l49 68q18 18 41 0l227 -191 q18 -14 4 -32l-22 -27q-8 -10 -17.5 -10t-17.5 4l-258 151q-10 4 -15.5 12.5zM250 342q0 -49 15.5 -93t46 -77t76.5 -52.5t110 -19.5q117 0 183.5 65.5t66.5 172.5v592q0 49 -16.5 91t-48.5 73.5t-78 50t-105 18.5t-105.5 -18.5t-79 -50t-49 -73.5t-16.5 -91v-588z" />
<glyph unicode="&#xd3;" horiz-adv-x="997" d="M119 338v596q0 78 28.5 141.5t78.5 109.5t120 70.5t152 24.5t151.5 -23.5t120.5 -68.5t80 -109.5t29 -144.5v-600q0 -80 -28 -144.5t-77 -108.5t-118.5 -68.5t-155.5 -24.5q-174 0 -277.5 94t-103.5 256zM250 342q0 -49 15.5 -93t46 -77t76.5 -52.5t110 -19.5 q117 0 183.5 65.5t66.5 172.5v592q0 49 -16.5 91t-48.5 73.5t-78 50t-105 18.5t-105.5 -18.5t-79 -50t-49 -73.5t-16.5 -91v-588zM434 1362q-12 18 4 31l230 190q23 16 39 0l49 -70q10 -12 7 -21t-13 -15l-263 -148q-8 -4 -17 -4t-17 10z" />
<glyph unicode="&#xd4;" horiz-adv-x="997" d="M119 338v596q0 78 28.5 141.5t78.5 109.5t120 70.5t152 24.5t151.5 -23.5t120.5 -68.5t80 -109.5t29 -144.5v-600q0 -80 -28 -144.5t-77 -108.5t-118.5 -68.5t-155.5 -24.5q-174 0 -277.5 94t-103.5 256zM227 1352q-12 10 0 22l191 191q10 10 19 14t26 4h59q16 0 25.5 -4 t19.5 -14l195 -195q4 -6 2 -12t-6 -8l-27 -21q-14 -10 -37 4l-188 127q-14 10 -33 0l-182 -127q-8 -6 -17.5 -8t-19.5 6zM250 342q0 -49 15.5 -93t46 -77t76.5 -52.5t110 -19.5q117 0 183.5 65.5t66.5 172.5v592q0 49 -16.5 91t-48.5 73.5t-78 50t-105 18.5t-105.5 -18.5 t-79 -50t-49 -73.5t-16.5 -91v-588z" />
<glyph unicode="&#xd5;" horiz-adv-x="997" d="M119 338v596q0 78 28.5 141.5t78.5 109.5t120 70.5t152 24.5t151.5 -23.5t120.5 -68.5t80 -109.5t29 -144.5v-600q0 -80 -28 -144.5t-77 -108.5t-118.5 -68.5t-155.5 -24.5q-174 0 -277.5 94t-103.5 256zM220 1401q1 8 5 16q27 47 65 80t87 33q31 0 59.5 -11.5t56 -23.5 t53 -23.5t50.5 -11.5q27 0 47.5 18.5t36.5 45.5q4 6 7 9t13 -3l52 -23q16 -5 6 -28q-31 -63 -75 -88t-81 -25q-33 0 -62.5 10t-58 23.5t-55.5 24t-53 10.5q-20 0 -41 -17.5t-33 -42.5q-10 -16 -31 -8l-41 23q-8 4 -7 12zM250 342q0 -49 15.5 -93t46 -77t76.5 -52.5 t110 -19.5q117 0 183.5 65.5t66.5 172.5v592q0 49 -16.5 91t-48.5 73.5t-78 50t-105 18.5t-105.5 -18.5t-79 -50t-49 -73.5t-16.5 -91v-588z" />
<glyph unicode="&#xd6;" horiz-adv-x="997" d="M119 338v596q0 78 28.5 141.5t78.5 109.5t120 70.5t152 24.5t151.5 -23.5t120.5 -68.5t80 -109.5t29 -144.5v-600q0 -80 -28 -144.5t-77 -108.5t-118.5 -68.5t-155.5 -24.5q-174 0 -277.5 94t-103.5 256zM250 342q0 -49 15.5 -93t46 -77t76.5 -52.5t110 -19.5 q117 0 183.5 65.5t66.5 172.5v592q0 49 -16.5 91t-48.5 73.5t-78 50t-105 18.5t-105.5 -18.5t-79 -50t-49 -73.5t-16.5 -91v-588zM252 1438q0 35 23.5 57.5t56.5 22.5t55.5 -22.5t22.5 -57.5t-22.5 -57.5t-55.5 -22.5t-56.5 22.5t-23.5 57.5zM578 1438q0 35 22.5 57.5 t54.5 22.5q33 0 55.5 -22.5t22.5 -57.5t-22.5 -57.5t-55.5 -22.5t-55 22.5t-22 57.5z" />
<glyph unicode="&#xd7;" d="M141 199q-16 16 0 30l250 252q6 10 0 15l-246 247q-18 16 -2 33l39 39q18 14 35 0l246 -248q6 -8 14 0l248 248q18 14 33 0l37 -39q16 -16 2 -35l-248 -245q-6 -8 2 -17l250 -252q16 -18 0 -34l-35 -35q-18 -18 -35 0l-252 250q-8 8 -14 2l-250 -252q-18 -12 -33 0z" />
<glyph unicode="&#xd8;" horiz-adv-x="997" d="M119 326v596v28.5t2 26.5q6 68 37.5 124t82 95t116 60.5t139.5 21.5q76 0 136 -19.5t107 -52.5q2 -2 9 -2q6 0 10 6l37 66q6 14 22 8l51 -27q14 -6 6 -22l-51 -92q-4 -6 -2 -12.5t4 -8.5q23 -35 37.5 -83t14.5 -99v-612q0 -80 -28 -142.5t-78 -106.5t-119.5 -67.5 t-153.5 -23.5q-72 0 -131.5 14t-106.5 49q-4 4 -10 4q-4 0 -10 -6l-31 -55q-8 -14 -21 -8l-51 26q-12 8 -4 23l41 74q8 14 0 24q-29 33 -42 86t-13 107zM248 323.5q0 -28.5 6 -51.5q2 -6 6 -6t6 4q104 197 209 399.5t209 399.5q4 8 4 14q0 8 -8 15q-35 29 -82 46t-100 17 q-109 0 -179.5 -62.5t-70.5 -164.5v-547v-63.5zM311 171q0 -5 4 -9q29 -33 78.5 -47.5t102.5 -14.5q115 0 183.5 62.5t68.5 169.5v596q0 4 -1.5 23.5t-5.5 29.5t-8 2l-416 -795q-6 -12 -6 -17z" />
<glyph unicode="&#xd9;" horiz-adv-x="1001" d="M119 328v917q0 18 20 19h92q18 0 19 -19v-917q0 -96 67.5 -162t184.5 -66t182.5 66.5t65.5 165.5v913q0 18 20 19h92q18 0 19 -19v-917q0 -80 -30 -143.5t-81 -106.5t-119.5 -66.5t-148.5 -23.5q-84 0 -153.5 23.5t-121 67.5t-80 107.5t-28.5 141.5zM251 1478.5 q-5 8.5 9 24.5l49 68q18 18 41 0l228 -191q18 -14 4 -32l-23 -27q-8 -10 -17.5 -10t-17.5 4l-258 151q-10 4 -15 12.5z" />
<glyph unicode="&#xda;" horiz-adv-x="1001" d="M119 328v917q0 18 20 19h92q18 0 19 -19v-917q0 -96 67.5 -162t184.5 -66t182.5 66.5t65.5 165.5v913q0 18 20 19h92q18 0 19 -19v-917q0 -80 -30 -143.5t-81 -106.5t-119.5 -66.5t-148.5 -23.5q-84 0 -153.5 23.5t-121 67.5t-80 107.5t-28.5 141.5zM387 1356 q-12 18 4 30l230 191q23 16 38 0l50 -70q10 -12 7 -21t-14 -16l-262 -147q-8 -4 -17 -4t-17 10z" />
<glyph unicode="&#xdb;" horiz-adv-x="1001" d="M119 328v917q0 18 20 19h92q18 0 19 -19v-917q0 -96 67.5 -162t184.5 -66t182.5 66.5t65.5 165.5v913q0 18 20 19h92q18 0 19 -19v-917q0 -80 -30 -143.5t-81 -106.5t-119.5 -66.5t-148.5 -23.5q-84 0 -153.5 23.5t-121 67.5t-80 107.5t-28.5 141.5zM217 1352 q-12 10 0 22l191 191q10 10 19 14t26 4h59q16 0 25.5 -4t19.5 -14l195 -195q4 -6 2 -12t-6 -8l-27 -21q-14 -10 -37 4l-188 127q-14 10 -33 0l-182 -127q-8 -6 -17.5 -8t-19.5 6z" />
<glyph unicode="&#xdc;" horiz-adv-x="1001" d="M119 328v917q0 18 20 19h92q18 0 19 -19v-917q0 -96 67.5 -162t184.5 -66t182.5 66.5t65.5 165.5v913q0 18 20 19h92q18 0 19 -19v-917q0 -80 -30 -143.5t-81 -106.5t-119.5 -66.5t-148.5 -23.5q-84 0 -153.5 23.5t-121 67.5t-80 107.5t-28.5 141.5zM248 1438 q0 35 23.5 57.5t56.5 22.5t55.5 -22.5t22.5 -57.5t-23 -57.5t-55 -22.5q-33 0 -56.5 22.5t-23.5 57.5zM573 1438q0 35 22.5 57.5t55.5 22.5t55.5 -22.5t22.5 -57.5t-22.5 -57.5t-55.5 -22.5t-55.5 22.5t-22.5 57.5z" />
<glyph unicode="&#xdd;" horiz-adv-x="858" d="M33 1235q-12 29 16 29h86q25 0 35 -21l252 -602q8 -14 16 -2q18 45 52 128t73 173t73 172t52 129q6 12 12.5 17.5t24.5 5.5h86q31 0 16 -29l-323 -727q-10 -27 -10 -49v-439q0 -20 -19 -20h-92q-20 0 -21 18v439q0 12 -1 23.5t-7 21.5zM342 1356q-12 18 4 30l229 191 q23 16 39 0l50 -70q10 -12 7 -21t-14 -16l-262 -147q-8 -4 -17 -4t-18 10z" />
<glyph unicode="&#xde;" horiz-adv-x="907" d="M131 18v1227q0 18 23 19h88q18 0 18 -19v-241q2 -12 19 -13h231q84 0 151.5 -26.5t113.5 -74.5t70.5 -113.5t24.5 -141.5t-26.5 -140.5t-73.5 -112.5t-112.5 -74.5t-145.5 -26.5h-233q-16 0 -17 -17v-244q0 -20 -20 -20h-88q-20 0 -23 18zM260 408q0 -12 16 -13h234 q106 0 168.5 65.5t62.5 174.5q0 45 -16 89t-46 78t-73 54.5t-96 20.5h-231q-14 0 -19 -13v-456z" />
<glyph unicode="&#xdf;" horiz-adv-x="952" d="M147 23v954q0 70 24 130t68 104t106.5 69t141.5 25q162 0 246 -88.5t84 -235.5q0 -61 -24.5 -123.5t-79.5 -91.5q-6 -6 -6 -8q0 -4 6 -6q70 -37 97.5 -105.5t27.5 -142.5v-197q0 -135 -84 -231q-39 -45 -95.5 -70.5t-123.5 -25.5h-144q-18 0 -18 18v57q0 23 28 23h99 q51 0 91 19.5t66.5 51t41 72.5t14.5 86v160q0 102 -50.5 172t-162.5 70h-68q-20 0 -20 20v64q0 18 20 18h70q86 0 138 43t52 133q0 88 -50 150.5t-153 62.5q-57 0 -98 -21.5t-67.5 -57.5t-39 -83t-12.5 -96v-919q0 -12 -2 -17.5t-14 -5.5h-88q-14 0 -17.5 5t-3.5 18z" />
<glyph unicode="&#xe0;" horiz-adv-x="839" d="M70 293q0 63 20.5 120.5t61.5 98.5t101 65.5t138 24.5q115 0 189 -63q10 -8 19 -5t9 17v57q0 41 -10 76t-33.5 60.5t-62.5 40t-96 14.5q-23 0 -51.5 -4t-58.5 -10.5t-57.5 -14.5t-48.5 -18q-18 -10 -24 10l-27 65q-6 16 11 23q53 29 126.5 43t141.5 14q174 0 244.5 -84 t70.5 -231v-574q0 -18 -16 -18h-84q-14 0 -15 14v58q0 14 -7 15t-15 -7q-41 -47 -97.5 -69.5t-123.5 -22.5q-147 0 -226 85t-79 220zM186 297q0 -86 49.5 -145.5t157.5 -59.5q92 0 149.5 60.5t57.5 146.5q0 84 -52 143.5t-153 59.5q-98 0 -153.5 -59.5t-55.5 -145.5z M241 1257.5q-1 10.5 15 20.5l70 43q25 12 39 -14l147 -256q4 -10 4 -17.5t-12 -15.5l-31 -19q-10 -8 -19.5 -4t-15.5 13l-188 229q-8 10 -9 20.5z" />
<glyph unicode="&#xe1;" horiz-adv-x="839" d="M70 293q0 63 20.5 120.5t61.5 98.5t101 65.5t138 24.5q115 0 189 -63q10 -8 19 -5t9 17v57q0 41 -10 76t-33.5 60.5t-62.5 40t-96 14.5q-23 0 -51.5 -4t-58.5 -10.5t-57.5 -14.5t-48.5 -18q-18 -10 -24 10l-27 65q-6 16 11 23q53 29 126.5 43t141.5 14q174 0 244.5 -84 t70.5 -231v-574q0 -18 -16 -18h-84q-14 0 -15 14v58q0 14 -7 15t-15 -7q-41 -47 -97.5 -69.5t-123.5 -22.5q-147 0 -226 85t-79 220zM186 297q0 -86 49.5 -145.5t157.5 -59.5q92 0 149.5 60.5t57.5 146.5q0 84 -52 143.5t-153 59.5q-98 0 -153.5 -59.5t-55.5 -145.5z M367 1033q0 7 4 16l147 258q6 10 17.5 15t21.5 -1l68 -43q18 -10 17 -20.5t-9 -18.5l-189 -231q-6 -6 -15 -11.5t-19 2.5l-33 19q-10 8 -10 15z" />
<glyph unicode="&#xe2;" horiz-adv-x="839" d="M70 293q0 63 20.5 120.5t61.5 98.5t101 65.5t138 24.5q115 0 189 -63q10 -8 19 -5t9 17v57q0 41 -10 76t-33.5 60.5t-62.5 40t-96 14.5q-23 0 -51.5 -4t-58.5 -10.5t-57.5 -14.5t-48.5 -18q-18 -10 -24 10l-27 65q-6 16 11 23q53 29 126.5 43t141.5 14q174 0 244.5 -84 t70.5 -231v-574q0 -18 -16 -18h-84q-14 0 -15 14v58q0 14 -7 15t-15 -7q-41 -47 -97.5 -69.5t-123.5 -22.5q-147 0 -226 85t-79 220zM162 1067l194 240q10 10 17.5 14t21.5 4h58q14 0 21 -4t18 -14l194 -238q18 -20 -2 -35l-22 -20q-10 -10 -17.5 -8t-17.5 10l-193 180 q-12 12 -26 2l-187 -182q-16 -20 -35 -4l-22 20q-20 16 -2 35zM186 297q0 -86 49.5 -145.5t157.5 -59.5q92 0 149.5 60.5t57.5 146.5q0 84 -52 143.5t-153 59.5q-98 0 -153.5 -59.5t-55.5 -145.5z" />
<glyph unicode="&#xe3;" horiz-adv-x="839" d="M70 293q0 63 20.5 120.5t61.5 98.5t101 65.5t138 24.5q115 0 189 -63q10 -8 19 -5t9 17v57q0 41 -10 76t-33.5 60.5t-62.5 40t-96 14.5q-23 0 -51.5 -4t-58.5 -10.5t-57.5 -14.5t-48.5 -18q-18 -10 -24 10l-27 65q-6 16 11 23q53 29 126.5 43t141.5 14q174 0 244.5 -84 t70.5 -231v-574q0 -18 -16 -18h-84q-14 0 -15 14v58q0 14 -7 15t-15 -7q-41 -47 -97.5 -69.5t-123.5 -22.5q-147 0 -226 85t-79 220zM175 1093.5q1 8.5 5 16.5q27 47 65 80t87 33q31 0 59.5 -11.5t56 -23.5t53 -23.5t50.5 -11.5q27 0 47 18.5t37 45.5q4 6 7 9t13 -3l52 -23 q16 -6 6 -29q-31 -63 -75 -87.5t-81 -24.5q-33 0 -62.5 10t-58 23.5t-55.5 23.5t-53 10q-20 0 -41 -17t-33 -42q-10 -16 -31 -8l-41 22q-8 4 -7 12.5zM186 297q0 -86 49.5 -145.5t157.5 -59.5q92 0 149.5 60.5t57.5 146.5q0 84 -52 143.5t-153 59.5q-98 0 -153.5 -59.5 t-55.5 -145.5z" />
<glyph unicode="&#xe4;" horiz-adv-x="839" d="M70 293q0 63 20.5 120.5t61.5 98.5t101 65.5t138 24.5q115 0 189 -63q10 -8 19 -5t9 17v57q0 41 -10 76t-33.5 60.5t-62.5 40t-96 14.5q-23 0 -51.5 -4t-58.5 -10.5t-57.5 -14.5t-48.5 -18q-18 -10 -24 10l-27 65q-6 16 11 23q53 29 126.5 43t141.5 14q174 0 244.5 -84 t70.5 -231v-574q0 -18 -16 -18h-84q-14 0 -15 14v58q0 14 -7 15t-15 -7q-41 -47 -97.5 -69.5t-123.5 -22.5q-147 0 -226 85t-79 220zM186 297q0 -86 49.5 -145.5t157.5 -59.5q92 0 149.5 60.5t57.5 146.5q0 84 -52 143.5t-153 59.5q-98 0 -153.5 -59.5t-55.5 -145.5z M186 1133q0 33 22.5 56t55.5 23t55.5 -23t22.5 -56q0 -35 -22.5 -57.5t-55.5 -22.5t-55.5 23.5t-22.5 56.5zM508 1133q0 33 23.5 56t56.5 23t55.5 -23t22.5 -56t-21.5 -56.5t-54.5 -23.5q-35 0 -58.5 23.5t-23.5 56.5z" />
<glyph unicode="&#xe5;" horiz-adv-x="839" d="M70 293q0 63 20.5 120.5t61.5 98.5t101 65.5t138 24.5q115 0 189 -63q10 -8 19 -5t9 17v57q0 41 -10 76t-33.5 60.5t-62.5 40t-96 14.5q-23 0 -51.5 -4t-58.5 -10.5t-57.5 -14.5t-48.5 -18q-18 -10 -24 10l-27 65q-6 16 11 23q53 29 126.5 43t141.5 14q174 0 244.5 -84 t70.5 -231v-574q0 -18 -16 -18h-84q-14 0 -15 14v58q0 14 -7 15t-15 -7q-41 -47 -97.5 -69.5t-123.5 -22.5q-147 0 -226 85t-79 220zM186 297q0 -86 49.5 -145.5t157.5 -59.5q92 0 149.5 60.5t57.5 146.5q0 84 -52 143.5t-153 59.5q-98 0 -153.5 -59.5t-55.5 -145.5z M289 1149q0 68 45 116t112 48q66 0 113 -46t47 -114q0 -66 -46 -113t-114 -47q-66 0 -111.5 45t-45.5 111zM362 1151q0 -37 25 -62.5t59 -25.5q35 0 62 25.5t27 62.5t-27 63.5t-62 26.5t-59.5 -26.5t-24.5 -63.5z" />
<glyph unicode="&#xe6;" horiz-adv-x="1370" d="M76 297q0 70 24.5 128t66.5 98t98.5 62.5t121.5 22.5q39 0 94.5 -17.5t91.5 -55.5q10 -12 20.5 -8.5t10.5 18.5v67q0 78 -60.5 133.5t-156.5 55.5q-47 0 -98 -14.5t-92 -34.5q-16 -8 -25 10l-22 61q-4 8 0 15.5t10 11.5q53 27 108.5 41t122.5 14q90 0 156.5 -30.5 t114.5 -83.5q10 -10 22 -3q51 51 115.5 84t150.5 33q76 0 139.5 -23.5t109.5 -68.5t71.5 -110.5t25.5 -149.5v-84q0 -23 -13 -35t-30 -12h-491q-31 0 -31 -31v-67q0 -47 17.5 -88t46 -72t68.5 -49.5t87 -18.5q72 0 120 34t77 73q10 14 18.5 13t16.5 -5l59 -43q20 -14 4 -39 q-53 -76 -129 -108.5t-164 -32.5q-92 0 -165.5 34t-118.5 93q-10 12 -19 2q-39 -59 -103.5 -93t-156.5 -34q-63 0 -119.5 20.5t-99.5 59.5t-68.5 96t-25.5 131zM188 299q0 -43 15.5 -81t42 -67.5t63.5 -46t80 -16.5q45 0 82 17.5t63.5 46t41 67.5t14.5 80q0 43 -15.5 82 t-41 67.5t-62.5 46t-80 17.5q-90 0 -146.5 -62.5t-56.5 -150.5zM733 545q0 -10 5 -17.5t22 -7.5h387q23 0 22 31v27q0 45 -16 86t-46 69.5t-70 46t-87 17.5t-87 -17.5t-68.5 -46t-45 -68.5t-16.5 -85v-35z" />
<glyph unicode="&#xe7;" horiz-adv-x="792" d="M92 319v248q0 78 26.5 141.5t75 107.5t113 66.5t137.5 22.5q96 0 168 -37t125 -108q14 -20 -6 -35l-59 -43q-20 -12 -37 10q-35 49 -84 77t-109 28q-100 0 -162.5 -62.5t-62.5 -159.5v-258q0 -100 58.5 -159.5t166.5 -59.5q78 0 122 32t79 79q8 14 27 0l59 -37 q27 -16 12 -35q-51 -78 -122.5 -111.5t-153.5 -37.5l-19 -76q-6 -20 13 -21h24q70 0 115 -38.5t45 -108.5q0 -59 -49 -104.5t-135 -45.5q-47 0 -86 11.5t-68 32.5q-6 6 -6 10t6 14l23 33q8 10 20 4q25 -14 50.5 -23.5t56.5 -9.5q51 0 76.5 23.5t25.5 52.5q0 10 -3 23.5 t-12.5 25.5t-26.5 20.5t-48 8.5h-49q-74 0 -60 57l31 115q-139 14 -218 100t-79 227z" />
<glyph unicode="&#xe8;" horiz-adv-x="866" d="M96 317v246q0 78 27 141.5t73 108.5t109.5 69.5t136.5 24.5q76 0 140.5 -23.5t110.5 -68.5t72 -109.5t26 -146.5v-92q0 -20 -11.5 -31.5t-23.5 -11.5h-504q-31 0 -31 -31v-67q0 -96 60.5 -162t162.5 -66q66 0 115 28t84 75q14 20 35 6l57 -37q18 -12 13 -29 q-47 -78 -126 -115.5t-176 -37.5q-80 0 -144 23.5t-110.5 66.5t-71 104.5t-24.5 134.5zM223 551q0 -10 6.5 -17.5t22.5 -7.5h391q20 0 21 23v33q0 92 -60.5 154.5t-161.5 62.5q-47 0 -87 -17.5t-69.5 -46t-46 -68.5t-16.5 -85v-31zM234.5 1257.5q-1.5 10.5 15.5 20.5l69 43 q25 12 39 -14l148 -256q4 -10 4 -17.5t-12 -15.5l-31 -19q-10 -8 -19.5 -4t-15.5 13l-188 229q-8 10 -9.5 20.5z" />
<glyph unicode="&#xe9;" horiz-adv-x="866" d="M96 317v246q0 78 27 141.5t73 108.5t109.5 69.5t136.5 24.5q76 0 140.5 -23.5t110.5 -68.5t72 -109.5t26 -146.5v-92q0 -20 -11.5 -31.5t-23.5 -11.5h-504q-31 0 -31 -31v-67q0 -96 60.5 -162t162.5 -66q66 0 115 28t84 75q14 20 35 6l57 -37q18 -12 13 -29 q-47 -78 -126 -115.5t-176 -37.5q-80 0 -144 23.5t-110.5 66.5t-71 104.5t-24.5 134.5zM223 551q0 -10 6.5 -17.5t22.5 -7.5h391q20 0 21 23v33q0 92 -60.5 154.5t-161.5 62.5q-47 0 -87 -17.5t-69.5 -46t-46 -68.5t-16.5 -85v-31zM360.5 1033q-0.5 7 4.5 16l147 258 q6 10 17.5 15t21.5 -1l67 -43q18 -10 17.5 -20.5t-8.5 -18.5l-189 -231q-6 -6 -15 -11.5t-20 2.5l-32 19q-10 8 -10.5 15z" />
<glyph unicode="&#xea;" horiz-adv-x="866" d="M96 317v246q0 78 27 141.5t73 108.5t109.5 69.5t136.5 24.5q76 0 140.5 -23.5t110.5 -68.5t72 -109.5t26 -146.5v-92q0 -20 -11.5 -31.5t-23.5 -11.5h-504q-31 0 -31 -31v-67q0 -96 60.5 -162t162.5 -66q66 0 115 28t84 75q14 20 35 6l57 -37q18 -12 13 -29 q-47 -78 -126 -115.5t-176 -37.5q-80 0 -144 23.5t-110.5 66.5t-71 104.5t-24.5 134.5zM193 1067l194 240q10 10 17.5 14t21.5 4h57q14 0 21.5 -4t17.5 -14l195 -238q18 -20 -2 -35l-23 -20q-10 -10 -17 -8t-18 10l-192 180q-12 12 -27 2l-186 -182q-16 -20 -35 -4l-22 20 q-20 16 -2 35zM223 551q0 -10 6.5 -17.5t22.5 -7.5h391q20 0 21 23v33q0 92 -60.5 154.5t-161.5 62.5q-47 0 -87 -17.5t-69.5 -46t-46 -68.5t-16.5 -85v-31z" />
<glyph unicode="&#xeb;" horiz-adv-x="866" d="M96 317v246q0 78 27 141.5t73 108.5t109.5 69.5t136.5 24.5q76 0 140.5 -23.5t110.5 -68.5t72 -109.5t26 -146.5v-92q0 -20 -11.5 -31.5t-23.5 -11.5h-504q-31 0 -31 -31v-67q0 -96 60.5 -162t162.5 -66q66 0 115 28t84 75q14 20 35 6l57 -37q18 -12 13 -29 q-47 -78 -126 -115.5t-176 -37.5q-80 0 -144 23.5t-110.5 66.5t-71 104.5t-24.5 134.5zM211 1133q0 33 22.5 56t55.5 23t55.5 -23t22.5 -56q0 -35 -22.5 -57.5t-55.5 -22.5t-55.5 23.5t-22.5 56.5zM223 551q0 -10 6.5 -17.5t22.5 -7.5h391q20 0 21 23v33q0 92 -60.5 154.5 t-161.5 62.5q-47 0 -87 -17.5t-69.5 -46t-46 -68.5t-16.5 -85v-31zM532 1133q0 33 24 56t56 23q33 0 55.5 -23t22.5 -56t-21.5 -56.5t-54.5 -23.5q-35 0 -58.5 23.5t-23.5 56.5z" />
<glyph unicode="&#xec;" horiz-adv-x="385" d="M-42 1257.5q-1 10.5 15 20.5l70 43q25 12 39 -14l147 -256q4 -10 4 -17.5t-12 -15.5l-31 -19q-10 -8 -19 -4t-15 13l-189 229q-8 10 -9 20.5zM125 16v861q0 18 18 18h93q16 0 16 -18v-861q0 -16 -16 -16h-93q-18 0 -18 16z" />
<glyph unicode="&#xed;" horiz-adv-x="385" d="M125 16v861q0 18 18 18h93q16 0 16 -18v-861q0 -16 -16 -16h-93q-18 0 -18 16zM133 1033q0 7 4 16l148 258q6 10 17 15t22 -1l67 -43q18 -10 17.5 -20.5t-9.5 -18.5l-188 -231q-6 -6 -15.5 -11.5t-19.5 2.5l-33 19q-10 8 -10 15z" />
<glyph unicode="&#xee;" horiz-adv-x="385" d="M-72 1067l195 240q10 10 17 14t22 4h57q14 0 21.5 -4t17.5 -14l195 -238q18 -20 -2 -35l-23 -20q-10 -10 -17.5 -8t-17.5 10l-192 180q-12 12 -27 2l-186 -182q-16 -20 -35 -4l-23 20q-20 16 -2 35zM125 16v861q0 18 18 18h93q16 0 16 -18v-861q0 -16 -16 -16h-93 q-18 0 -18 16z" />
<glyph unicode="&#xef;" horiz-adv-x="385" d="M-49 1133q0 33 22.5 56t55.5 23t55 -23t22 -56q0 -35 -22.5 -57.5t-54.5 -22.5q-33 0 -55.5 23.5t-22.5 56.5zM125 16v861q0 18 18 18h93q16 0 16 -18v-861q0 -16 -16 -16h-93q-18 0 -18 16zM272 1133q0 33 23.5 56t56.5 23t55.5 -23t22.5 -56t-21.5 -56.5t-54.5 -23.5 q-35 0 -58.5 23.5t-23.5 56.5z" />
<glyph unicode="&#xf0;" horiz-adv-x="890" d="M98 311v226q0 76 24.5 137t69 105t105.5 67.5t133 23.5q150 0 227 -90q2 -2 5 -2q6 0 6 6q0 94 -11.5 160t-46.5 113q0 4 -4 4l-4 -2l-92 -90q-2 -2 -7 -5t-14 3l-34 32q-8 8 -4 15.5t10 13.5l90 88q6 6 -4 12q-47 41 -110.5 57.5t-133.5 18.5q-10 0 -19.5 4t-9.5 17v71 q0 20 29 21q100 0 184 -23.5t150 -79.5q8 -10 16 -2l86 84q6 6 10.5 5t10.5 -5l35 -32q10 -10 0 -21l-90 -86q-10 -10 -3 -18q49 -61 69 -161.5t20 -225.5v-428q0 -162 -95.5 -248t-255.5 -86t-251 87t-91 234zM219 324q0 -104 56.5 -167t166.5 -63q111 0 168.5 62.5 t57.5 167.5v184q0 49 -11.5 95t-37 81t-68.5 56.5t-105 21.5q-109 0 -168 -64.5t-59 -162.5v-211z" />
<glyph unicode="&#xf1;" horiz-adv-x="911" d="M111 16v861q0 18 16 18h88q14 0 14 -16v-54q0 -14 8.5 -16t18.5 8q98 88 231 88q82 0 141.5 -25.5t98.5 -71.5t58.5 -107.5t19.5 -133.5v-549q0 -18 -14 -18h-95q-16 0 -16 16v549q0 96 -53.5 164t-167.5 68q-100 0 -160.5 -64.5t-60.5 -163.5v-551q0 -18 -19 -18h-90 q-18 0 -18 16zM163 1093.5q1 8.5 5 16.5q27 47 64.5 80t86.5 33q31 0 60 -11.5t56.5 -23.5t53 -23.5t50.5 -11.5q27 0 47 18.5t37 45.5q4 6 7 9t13 -3l51 -23q16 -6 6 -29q-31 -63 -74.5 -87.5t-80.5 -24.5q-33 0 -62.5 10t-58.5 23.5t-55.5 23.5t-53.5 10q-20 0 -40.5 -17 t-32.5 -42q-10 -16 -31 -8l-41 22q-8 4 -7 12.5z" />
<glyph unicode="&#xf2;" horiz-adv-x="890" d="M98 324v247q0 154 95.5 245t252.5 91q156 0 251.5 -89t95.5 -247v-243q0 -162 -92.5 -251t-254.5 -89t-255 88t-93 248zM223 326q0 -104 57.5 -167t165.5 -63q111 0 165.5 62.5t56.5 167.5v243q0 98 -57.5 163t-164.5 65q-109 0 -166 -63.5t-57 -162.5v-245zM247 1257.5 q-1 10.5 15 20.5l70 43q25 12 39 -14l147 -256q4 -10 4 -17.5t-12 -15.5l-31 -19q-10 -8 -19 -4t-16 13l-188 229q-8 10 -9 20.5z" />
<glyph unicode="&#xf3;" horiz-adv-x="890" d="M98 324v247q0 154 95.5 245t252.5 91q156 0 251.5 -89t95.5 -247v-243q0 -162 -92.5 -251t-254.5 -89t-255 88t-93 248zM223 326q0 -104 57.5 -167t165.5 -63q111 0 165.5 62.5t56.5 167.5v243q0 98 -57.5 163t-164.5 65q-109 0 -166 -63.5t-57 -162.5v-245zM365 1033 q0 7 4 16l147 258q6 10 17.5 15t21.5 -1l68 -43q18 -10 17 -20.5t-9 -18.5l-189 -231q-6 -6 -15 -11.5t-19 2.5l-33 19q-10 8 -10 15z" />
<glyph unicode="&#xf4;" horiz-adv-x="890" d="M98 324v247q0 154 95.5 245t252.5 91q156 0 251.5 -89t95.5 -247v-243q0 -162 -92.5 -251t-254.5 -89t-255 88t-93 248zM193 1067l194 240q10 10 17.5 14t21.5 4h57q14 0 21.5 -4t17.5 -14l195 -238q18 -20 -2 -35l-23 -20q-10 -10 -17 -8t-18 10l-192 180q-12 12 -27 2 l-186 -182q-16 -20 -35 -4l-22 20q-20 16 -2 35zM223 326q0 -104 57.5 -167t165.5 -63q111 0 165.5 62.5t56.5 167.5v243q0 98 -57.5 163t-164.5 65q-109 0 -166 -63.5t-57 -162.5v-245z" />
<glyph unicode="&#xf5;" horiz-adv-x="890" d="M98 324v247q0 154 95.5 245t252.5 91q156 0 251.5 -89t95.5 -247v-243q0 -162 -92.5 -251t-254.5 -89t-255 88t-93 248zM181 1093.5q1 8.5 5 16.5q27 47 65 80t87 33q31 0 59.5 -11.5t56 -23.5t53 -23.5t50.5 -11.5q27 0 47.5 18.5t36.5 45.5q4 6 7 9t14 -3l51 -23 q16 -6 6 -29q-31 -63 -75 -87.5t-81 -24.5q-33 0 -62.5 10t-58 23.5t-55.5 23.5t-53 10q-20 0 -41 -17t-33 -42q-10 -16 -31 -8l-41 22q-8 4 -7 12.5zM223 326q0 -104 57.5 -167t165.5 -63q111 0 165.5 62.5t56.5 167.5v243q0 98 -57.5 163t-164.5 65q-109 0 -166 -63.5 t-57 -162.5v-245z" />
<glyph unicode="&#xf6;" horiz-adv-x="890" d="M98 324v247q0 154 95.5 245t252.5 91q156 0 251.5 -89t95.5 -247v-243q0 -162 -92.5 -251t-254.5 -89t-255 88t-93 248zM209 1133q0 33 22.5 56t55.5 23t55.5 -23t22.5 -56q0 -35 -23 -57.5t-55 -22.5q-33 0 -55.5 23.5t-22.5 56.5zM223 326q0 -104 57.5 -167t165.5 -63 q111 0 165.5 62.5t56.5 167.5v243q0 98 -57.5 163t-164.5 65q-109 0 -166 -63.5t-57 -162.5v-245zM530 1133q0 33 24 56t56 23q33 0 55.5 -23t22.5 -56t-21.5 -56.5t-54.5 -23.5q-35 0 -58.5 23.5t-23.5 56.5z" />
<glyph unicode="&#xf7;" d="M74 453v51q0 27 28 26h740q27 0 26 -26v-49q0 -27 -26 -27h-740q-29 0 -28 25zM381 123q0 35 24.5 58.5t57.5 23.5q35 0 58.5 -23.5t23.5 -58.5t-22.5 -58.5t-57.5 -23.5t-59.5 23.5t-24.5 58.5zM383 813q0 35 23.5 58.5t58.5 23.5t58.5 -23.5t23.5 -58.5t-23.5 -58.5 t-58.5 -23.5t-58.5 23.5t-23.5 58.5z" />
<glyph unicode="&#xf8;" horiz-adv-x="878" d="M96 322v249q0 74 25.5 135.5t71 105.5t109 68.5t138.5 24.5q66 0 121 -17.5t101 -49.5q2 -2 6 2l41 55q4 4 9 7t15 -3l43 -29q12 -8 6 -20l-51 -72q-4 -4 -3 -5t3 -5q55 -84 55 -197v-245q0 -160 -92 -249t-250 -89q-66 0 -123 17.5t-102 47.5q-8 4 -12 -4l-37 -53 q-6 -10 -23 -4l-45 31q-12 8 -4 20l52 72q2 4 0 10q-53 78 -54 197zM221 324q0 -20 2 -40t8 -38q2 -10 11 -2l350 487q2 4 -2 8q-59 55 -148 56q-111 0 -166 -62.5t-55 -161.5v-247zM291 154q29 -29 66.5 -44.5t84.5 -15.5q113 0 165 65.5t52 164.5v247q0 12 -3 37t-9 45 q0 6 -4 2l-350 -489q-6 -8 -2 -12z" />
<glyph unicode="&#xf9;" horiz-adv-x="907" d="M100 322v555q0 18 17 18h94q14 0 14 -16v-553q0 -47 11.5 -88t36 -72t63.5 -49.5t94 -18.5q109 0 173.5 64.5t64.5 163.5v551q0 18 16 18h94q18 0 19 -16v-861q0 -18 -19 -18h-88q-16 0 -16 16v52q0 14 -7.5 17t-17.5 -7q-41 -43 -108.5 -66.5t-126.5 -23.5 q-82 0 -141.5 24.5t-97.5 69.5t-56.5 106.5t-18.5 133.5zM247 1257.5q-1 10.5 15 20.5l70 43q25 12 39 -14l147 -256q4 -10 4 -17.5t-12 -15.5l-31 -19q-10 -8 -19 -4t-16 13l-188 229q-8 10 -9 20.5z" />
<glyph unicode="&#xfa;" horiz-adv-x="907" d="M100 322v555q0 18 17 18h94q14 0 14 -16v-553q0 -47 11.5 -88t36 -72t63.5 -49.5t94 -18.5q109 0 173.5 64.5t64.5 163.5v551q0 18 16 18h94q18 0 19 -16v-861q0 -18 -19 -18h-88q-16 0 -16 16v52q0 14 -7.5 17t-17.5 -7q-41 -43 -108.5 -66.5t-126.5 -23.5 q-82 0 -141.5 24.5t-97.5 69.5t-56.5 106.5t-18.5 133.5zM383 1033q0 7 4 16l148 258q6 10 17 15t21 -1l68 -43q18 -10 17 -20.5t-9 -18.5l-188 -231q-6 -6 -15.5 -11.5t-19.5 2.5l-33 19q-10 8 -10 15z" />
<glyph unicode="&#xfb;" horiz-adv-x="907" d="M100 322v555q0 18 17 18h94q14 0 14 -16v-553q0 -47 11.5 -88t36 -72t63.5 -49.5t94 -18.5q109 0 173.5 64.5t64.5 163.5v551q0 18 16 18h94q18 0 19 -16v-861q0 -18 -19 -18h-88q-16 0 -16 16v52q0 14 -7.5 17t-17.5 -7q-41 -43 -108.5 -66.5t-126.5 -23.5 q-82 0 -141.5 24.5t-97.5 69.5t-56.5 106.5t-18.5 133.5zM180 1067l195 240q10 10 17 14t22 4h57q14 0 21.5 -4t17.5 -14l195 -238q18 -20 -3 -35l-22 -20q-10 -10 -17.5 -8t-17.5 10l-192 180q-12 12 -27 2l-186 -182q-16 -20 -35 -4l-23 20q-20 16 -2 35z" />
<glyph unicode="&#xfc;" horiz-adv-x="907" d="M100 322v555q0 18 17 18h94q14 0 14 -16v-553q0 -47 11.5 -88t36 -72t63.5 -49.5t94 -18.5q109 0 173.5 64.5t64.5 163.5v551q0 18 16 18h94q18 0 19 -16v-861q0 -18 -19 -18h-88q-16 0 -16 16v52q0 14 -7.5 17t-17.5 -7q-41 -43 -108.5 -66.5t-126.5 -23.5 q-82 0 -141.5 24.5t-97.5 69.5t-56.5 106.5t-18.5 133.5zM211 1133q0 33 22.5 56t55.5 23t55.5 -23t22.5 -56q0 -35 -22.5 -57.5t-55.5 -22.5t-55.5 23.5t-22.5 56.5zM532 1133q0 33 24 56t56 23q33 0 55.5 -23t22.5 -56t-21.5 -56.5t-54.5 -23.5q-35 0 -58.5 23.5 t-23.5 56.5z" />
<glyph unicode="&#xfd;" horiz-adv-x="792" d="M24 888.5q3 8.5 19 8.5h80q16 0 23.5 -7t11.5 -18l207 -737q4 -10 10 -14t12 14l244 733q4 10 10 19.5t25 9.5h73q14 0 19.5 -9t1.5 -20l-404 -1210q-4 -10 -14 -21.5t-33 -11.5h-65q-25 0 -17 29l109 330q4 16 -10 16h-17q-29 0 -37 29l-247 839q-4 12 -1 20.5z M313.5 1033q-0.5 7 3.5 16l148 258q6 10 17.5 15t21.5 -1l67 -43q18 -10 17.5 -20.5t-8.5 -18.5l-189 -231q-6 -6 -15 -11.5t-20 2.5l-32 19q-10 8 -10.5 15z" />
<glyph unicode="&#xfe;" horiz-adv-x="901" d="M113 -354v1642q0 16 16 17h84q16 0 16 -17v-469q0 -10 8.5 -10t18.5 10q33 35 86 60.5t129 25.5q152 0 244 -88t92 -242v-247q0 -68 -21.5 -129.5t-62.5 -108.5t-101.5 -75.5t-138.5 -28.5q-80 0 -132 23.5t-85 60.5q-14 12 -21 7t-7 -18v-411q0 -18 -17 -19h-92 q-16 0 -16 17zM238 326q0 -47 16 -89t45 -73t70 -49.5t90 -18.5q104 0 162.5 66.5t58.5 163.5v245q0 98 -60.5 162t-160.5 64q-98 0 -159.5 -62.5t-61.5 -159.5v-249z" />
<glyph unicode="&#xff;" horiz-adv-x="792" d="M24 888.5q3 8.5 19 8.5h80q16 0 23.5 -7t11.5 -18l207 -737q4 -10 10 -14t12 14l244 733q4 10 10 19.5t25 9.5h73q14 0 19.5 -9t1.5 -20l-404 -1210q-4 -10 -14 -21.5t-33 -11.5h-65q-25 0 -17 29l109 330q4 16 -10 16h-17q-29 0 -37 29l-247 839q-4 12 -1 20.5z M145 1133q0 33 22.5 56t55.5 23t55.5 -23t22.5 -56q0 -35 -22.5 -57.5t-55.5 -22.5t-55.5 23.5t-22.5 56.5zM467 1133q0 33 23.5 56t56.5 23t55.5 -23t22.5 -56t-21.5 -56.5t-54.5 -23.5q-35 0 -58.5 23.5t-23.5 56.5z" />
<glyph unicode="&#x152;" horiz-adv-x="1335" d="M115 324v620q0 78 28.5 140.5t77.5 105.5t118 66.5t148 23.5q61 0 123 -16h637q20 0 21 -21v-74q0 -18 -19 -18h-520q-16 0 -16 -14v-416q0 -14 14 -14h432q18 0 19 -21v-76q0 -18 -19 -18h-430q-16 0 -16 -17v-446q0 -14 16 -14h524q18 0 19 -19v-76q0 -20 -19 -20h-651 q-25 -6 -54.5 -9t-58.5 -3q-82 0 -150.5 22.5t-118.5 65.5t-77.5 105.5t-27.5 142.5zM244 328q0 -100 66 -164t177 -64q47 0 97 17v1032q-49 16 -97 16q-109 0 -176 -63.5t-67 -161.5v-612z" />
<glyph unicode="&#x153;" horiz-adv-x="1441" d="M100 322v249q0 76 26 138.5t71 105.5t108.5 66.5t138.5 23.5q86 0 153 -28.5t114 -81.5q14 -16 23 -15.5t20 13.5q45 53 110.5 82.5t145.5 29.5q76 0 138 -25.5t108.5 -71.5t72 -111.5t25.5 -143.5v-84q0 -23 -12.5 -35t-28.5 -12h-488q-33 0 -32 -35v-74q0 -43 15 -83 t44 -70.5t69 -48t89 -17.5q70 0 115.5 32t72.5 67q12 16 21.5 21t21.5 -3l55 -39q25 -16 7 -45q-53 -72 -128 -105.5t-161 -33.5q-88 0 -157 27.5t-114 78.5q-12 14 -17 13t-13 -9q-43 -53 -110.5 -81.5t-153.5 -28.5q-160 0 -254.5 90t-94.5 244zM225 324q0 -98 61.5 -164 t159.5 -66q96 0 157 63.5t61 159.5v252q0 96 -59.5 161t-158.5 65q-98 0 -159.5 -62.5t-61.5 -161.5v-247zM795 549q0 -12 3 -20.5t21 -8.5h385q23 0 23 31l2 27q0 45 -16.5 86t-45 71.5t-68.5 48t-87 17.5q-49 0 -89 -17.5t-69 -48t-44 -71.5t-15 -86v-29z" />
<glyph unicode="&#x178;" horiz-adv-x="858" d="M33 1235q-12 29 16 29h86q25 0 35 -21l252 -602q8 -14 16 -2q18 45 52 128t73 173t73 172t52 129q6 12 12.5 17.5t24.5 5.5h86q31 0 16 -29l-323 -727q-10 -27 -10 -49v-439q0 -20 -19 -20h-92q-20 0 -21 18v439q0 12 -1 23.5t-7 21.5zM178 1438q0 35 23.5 57.5 t56.5 22.5t55.5 -22.5t22.5 -57.5t-22.5 -57.5t-55.5 -22.5t-56.5 22.5t-23.5 57.5zM504 1438q0 35 22.5 57.5t55.5 22.5t55 -22.5t22 -57.5t-22.5 -57.5t-54.5 -22.5q-33 0 -55.5 22.5t-22.5 57.5z" />
<glyph unicode="&#x2c6;" horiz-adv-x="884" d="M193 1067l194 240q10 10 17.5 14t21.5 4h57q14 0 21.5 -4t17.5 -14l195 -238q18 -20 -2 -35l-23 -20q-10 -10 -17 -8t-18 10l-192 180q-12 12 -27 2l-186 -182q-16 -20 -35 -4l-22 20q-20 16 -2 35z" />
<glyph unicode="&#x2dc;" horiz-adv-x="845" d="M161 1093.5q1 8.5 5 16.5q27 47 64.5 80t86.5 33q31 0 60 -11.5t56.5 -23.5t53 -23.5t50.5 -11.5q27 0 47 18.5t37 45.5q4 6 7 9t13 -3l51 -23q16 -6 6 -29q-31 -63 -74.5 -87.5t-80.5 -24.5q-33 0 -62.5 10t-58.5 23.5t-55.5 23.5t-53.5 10q-20 0 -40.5 -17t-32.5 -42 q-10 -16 -31 -8l-41 22q-8 4 -7 12.5z" />
<glyph unicode="&#x2000;" horiz-adv-x="818" />
<glyph unicode="&#x2001;" horiz-adv-x="1636" />
<glyph unicode="&#x2002;" horiz-adv-x="818" />
<glyph unicode="&#x2003;" horiz-adv-x="1636" />
<glyph unicode="&#x2004;" horiz-adv-x="545" />
<glyph unicode="&#x2005;" horiz-adv-x="409" />
<glyph unicode="&#x2006;" horiz-adv-x="272" />
<glyph unicode="&#x2007;" horiz-adv-x="272" />
<glyph unicode="&#x2008;" horiz-adv-x="204" />
<glyph unicode="&#x2009;" horiz-adv-x="327" />
<glyph unicode="&#x200a;" horiz-adv-x="90" />
<glyph unicode="&#x2010;" horiz-adv-x="653" d="M115 451v75q0 16 16 17h379q16 0 16 -17v-75q0 -18 -14 -19h-379q-18 0 -18 19z" />
<glyph unicode="&#x2011;" horiz-adv-x="653" d="M115 451v75q0 16 16 17h379q16 0 16 -17v-75q0 -18 -14 -19h-379q-18 0 -18 19z" />
<glyph unicode="&#x2012;" horiz-adv-x="653" d="M115 451v75q0 16 16 17h379q16 0 16 -17v-75q0 -18 -14 -19h-379q-18 0 -18 19z" />
<glyph unicode="&#x2013;" horiz-adv-x="1024" d="M59 449v61q0 18 15 18h872q18 0 19 -18v-61q0 -18 -17 -19h-872q-16 0 -17 19z" />
<glyph unicode="&#x2014;" horiz-adv-x="2048" d="M59 449v61q0 18 15 18h1892q18 0 19 -18v-61q0 -18 -19 -19h-1890q-16 0 -17 19z" />
<glyph unicode="&#x2018;" horiz-adv-x="372" d="M76 940l90 348q6 23 29 23h45q23 0 18 -33l-20 -346q0 -27 -27 -27h-111q-33 0 -24 35z" />
<glyph unicode="&#x2019;" horiz-adv-x="378" d="M100 936l23 346q0 29 27 29h108q35 0 27 -37l-90 -346q-6 -23 -29 -23h-45q-12 0 -17.5 9.5t-3.5 21.5z" />
<glyph unicode="&#x201a;" horiz-adv-x="389" d="M104 -195l21 340q0 27 27 27h110q35 0 23 -35l-90 -340q-6 -23 -27 -22h-45q-12 0 -16.5 9t-2.5 21z" />
<glyph unicode="&#x201c;" horiz-adv-x="573" d="M63 940l93 348q6 23 26 23h45q18 0 19 -33l-21 -346q0 -27 -28 -27h-109q-33 0 -25 35zM297 940l88 348q8 23 27 23h43q25 0 20 -33l-20 -346q0 -27 -27 -27h-109q-33 0 -22 35z" />
<glyph unicode="&#x201d;" horiz-adv-x="573" d="M90 936l23 346q0 29 26 29h109q31 0 22 -37l-88 -346q-6 -23 -26 -23h-45q-12 0 -17.5 9.5t-3.5 21.5zM322 936l20 346q4 29 29 29h106q33 0 25 -37l-88 -346q-8 -23 -29 -23h-43q-20 0 -20 31z" />
<glyph unicode="&#x201e;" horiz-adv-x="630" d="M104 -195l21 340q0 27 27 27h110q35 0 23 -35l-90 -340q-6 -23 -27 -22h-45q-12 0 -16.5 9t-2.5 21zM352 -195l21 340q0 27 26 27h111q33 0 25 -35l-93 -340q-6 -23 -26 -22h-45q-12 0 -16.5 9t-2.5 21z" />
<glyph unicode="&#x2022;" horiz-adv-x="759" d="M184 475q0 41 15.5 77t42 63.5t63.5 43t78 15.5q39 0 75 -15.5t62.5 -43t42 -63.5t15.5 -75q0 -82 -56.5 -139t-138.5 -57q-41 0 -78 15t-63.5 42t-42 61.5t-15.5 75.5z" />
<glyph unicode="&#x2026;" horiz-adv-x="1282" d="M119 76q0 37 26.5 62.5t61.5 25.5q41 0 66.5 -24.5t25.5 -63.5t-24.5 -65.5t-65.5 -26.5q-37 0 -63.5 27.5t-26.5 64.5zM547 76q0 37 25.5 62.5t60.5 25.5q41 0 67.5 -24.5t26.5 -63.5t-25.5 -65.5t-66.5 -26.5q-37 0 -62.5 27.5t-25.5 64.5zM971 76q0 37 26.5 62.5 t61.5 25.5q41 0 67.5 -24.5t26.5 -63.5t-26.5 -65.5t-67.5 -26.5q-35 0 -61.5 27.5t-26.5 64.5z" />
<glyph unicode="&#x202f;" horiz-adv-x="327" />
<glyph unicode="&#x2039;" horiz-adv-x="614" d="M105.5 408q0.5 14 13.5 30l248 310q10 10 19 17t32 7h76q16 0 21 -9t-5 -20l-260 -321q-10 -12 -8 -17.5t8 -15.5l256 -317q10 -14 5 -24.5t-17 -10.5h-76q-16 0 -27.5 6t-25.5 25l-244 303q-16 23 -15.5 37z" />
<glyph unicode="&#x203a;" horiz-adv-x="614" d="M107 762.5q4 9.5 20 9.5h78q23 0 31 -7t18 -17l248 -310q14 -16 14 -30.5t-16 -36.5l-244 -303q-14 -18 -25.5 -24.5t-27.5 -6.5h-76q-12 0 -17.5 10t5.5 25l256 317q6 10 8 15.5t-8 17.5l-258 321q-10 10 -6 19.5z" />
<glyph unicode="&#x205f;" horiz-adv-x="409" />
<glyph unicode="&#x20ac;" d="M86 514v59q0 14 18 15h564q16 0 16 -17v-57q0 -18 -18 -18h-336q-16 0 -17 -11v-163q0 -98 62.5 -162t161.5 -64q63 0 115.5 28t86.5 75q8 10 18.5 15t24.5 -5l64 -45q12 -12 2 -29q-109 -147 -311 -147q-160 0 -255.5 86t-95.5 245v162q0 16 -12 17h-72q-16 0 -16 16z M86 713v57q0 18 18 18h68q10 0 12 7.5t2 13.5v135q0 76 26 138.5t72 106.5t110.5 67.5t144.5 23.5q96 0 178 -37t131 -115q12 -18 -6 -30l-66 -41q-18 -12 -35 8q-35 51 -83 77.5t-119 26.5q-102 0 -164 -62.5t-62 -162.5v-143q0 -6 2 -10.5t15 -4.5h338q16 0 16 -16v-57 q0 -16 -16 -17h-566q-16 0 -16 17z" />
<glyph unicode="&#x2122;" horiz-adv-x="1210" d="M47 1206v45q0 12 10 13h400q12 0 12 -13v-45q0 -12 -10 -12h-154q-8 0 -8 -8v-547q0 -10 -12 -10h-54q-14 0 -14 10v547q0 8 -8 8h-152q-10 0 -10 12zM537 639v610q0 14 14 15h41q12 0 15 -3.5t7 -13.5l209 -481q4 0 6 2l205 479q10 16 25 17h43q12 0 12 -13v-612 q0 -10 -12 -10h-47q-10 0 -11 8v430l-4 4l-2 -2q-45 -100 -89 -198.5t-87 -198.5q-4 -6 -8 -10.5t-14 -4.5h-31q-12 0 -21 15l-174 397v2l-4 -4v-428q0 -10 -12 -10h-51q-10 0 -10 10z" />
<glyph unicode="&#xe000;" horiz-adv-x="890" d="M0 0v891h891v-891h-891z" />
</font>
</defs>
</svg>
