<?xml version="1.0" standalone="no"?>
<!DOCTYPE svg PUBLIC "-//W3C//DTD SVG 1.1//EN" "http://www.w3.org/Graphics/SVG/1.1/DTD/svg11.dtd" >
<svg xmlns="http://www.w3.org/2000/svg">
<metadata></metadata>
<defs>
<font id="pf_handbook_pro_bold_trbold" horiz-adv-x="1017" >
<font-face units-per-em="2048" ascent="1536" descent="-512" />
<missing-glyph horiz-adv-x="481" />
<glyph horiz-adv-x="2048" />
<glyph horiz-adv-x="2048" />
<glyph unicode="&#xd;" horiz-adv-x="682" />
<glyph unicode=" "  horiz-adv-x="481" />
<glyph unicode="&#x09;" horiz-adv-x="481" />
<glyph unicode="&#xa0;" horiz-adv-x="481" />
<glyph unicode="!" horiz-adv-x="569" d="M168 115q0 53 40 92t95 39q57 0 97 -38t40 -93q0 -53 -39 -92t-96 -39t-97 39t-40 92zM188 1233q0 31 29 31h174q29 0 29 -29l-39 -858q0 -4 -3 -13.5t-18 -9.5h-106q-14 0 -18.5 9.5t-4.5 11.5z" />
<glyph unicode="&#x22;" horiz-adv-x="653" d="M109 860v375q0 16 10 22.5t22 6.5h109q12 0 22.5 -6.5t8.5 -20.5v-375h2q0 -16 -12.5 -22t-22.5 -6h-105q-14 0 -24 6t-10 20zM375 860v375q0 16 11 22.5t24 6.5h106q12 0 22.5 -6.5t10.5 -20.5v-375q0 -16 -11.5 -22t-21.5 -6h-106q-12 0 -23.5 6t-11.5 20z" />
<glyph unicode="#" d="M35 381l22 102q4 27 33 27h111q14 0 19 6t9 16l41 183q4 12 0 18t-22 6h-115q-35 0 -27 29l23 104q6 27 33 27h135q16 0 20 16l48 213q2 20 28 21h105q25 0 29.5 -11.5t0.5 -23.5l-41 -190q-6 -25 21 -25h127q18 0 22 19l52 210q2 20 28 21h103q25 0 31 -11.5t1 -23.5 l-43 -190q-2 -10 1.5 -17.5t19.5 -7.5h102q25 0 28 -13.5t-1 -29.5l-21 -90q-2 -8 -8 -18.5t-22 -10.5h-121q-20 0 -25 -16l-39 -182q-8 -29 21 -29h119q31 0 26 -31l-20 -98q-6 -29 -37 -29h-129q-16 0 -20.5 -3t-8.5 -15l-49 -230q-6 -23 -31 -22h-102q-25 0 -30 11t-1 26 l43 211q4 12 0 18t-20 6h-127q-12 0 -16.5 -5t-8.5 -15l-51 -230q-6 -23 -29 -22h-104q-18 0 -27.5 9t-5.5 26q0 2 6 35.5t17 72.5l24 103q4 14 0 19t-20 5h-101q-18 0 -23 8.5t-3 20.5zM403 537q-4 -15 0.5 -21t20.5 -6h123q23 0 24 22l39 181q4 12 1 19t-19 7h-123 q-25 0 -29 -22z" />
<glyph unicode="$" d="M123 899q0 63 22.5 118.5t61.5 98.5t92 72t113 41q18 2 18 22v109q0 27 29 26h86q27 0 26 -24v-109q0 -16 25 -22q121 -16 213 -78q23 -16 37 -31.5t-2 -42.5l-53 -80q-33 -51 -84 -12q-51 41 -101.5 56.5t-99.5 15.5q-31 0 -62.5 -10.5t-57.5 -30t-41 -50t-15 -71.5 q0 -35 21.5 -61.5t53 -46t67.5 -34t67 -22.5q63 -18 127.5 -43.5t116 -65.5t83 -99.5t31.5 -145.5q0 -74 -23.5 -132.5t-64.5 -99.5t-97.5 -66.5t-121.5 -37.5q-16 -4 -17 -20v-121q0 -29 -28 -29h-84q-29 0 -29 27v120q0 16 -18 17q-72 8 -145.5 35.5t-129.5 74.5 q-35 29 -10 60l68 84q16 23 33.5 19.5t43.5 -25.5q37 -35 93.5 -53.5t115.5 -18.5q88 0 147.5 39t59.5 117q0 43 -26.5 73.5t-64.5 53t-82 38t-79 27.5q-55 18 -111.5 44t-101.5 65t-73.5 94t-28.5 135z" />
<glyph unicode="%" horiz-adv-x="1556" d="M100 707v342q0 109 75 167t187 58q115 0 190 -57.5t75 -167.5v-342q0 -111 -73 -167.5t-189 -56.5q-117 0 -191 56.5t-74 167.5zM272 707q0 -37 25 -59.5t65 -22.5q41 0 68 22.5t27 59.5v342q0 41 -27 62.5t-65 21.5q-41 0 -67 -23t-26 -61v-342zM404.5 -50 q-3.5 11 1.5 25l581 1328q10 23 37 22h74q25 0 30 -11t-2 -28l-581 -1329q-8 -18 -31 -18h-84q-22 0 -25.5 11zM930 217v342q0 109 74.5 167t187.5 58q115 0 189.5 -57t74.5 -168v-342q0 -111 -73.5 -167t-188.5 -56t-189.5 56t-74.5 167zM1100 217q0 -39 25.5 -61.5 t66.5 -22.5t68.5 21.5t27.5 62.5v342q0 41 -26.5 63.5t-67.5 22.5t-67.5 -23.5t-26.5 -62.5v-342z" />
<glyph unicode="&#x26;" horiz-adv-x="1277" d="M106 381v448q0 82 31 147.5t85 113t128 73t160 25.5h338q14 0 24.5 -8.5t10.5 -24.5v-133q0 -31 -33 -31h-336q-80 0 -133 -45t-53 -115v-452q0 -33 6 -68t26.5 -62.5t59.5 -46t104 -18.5h49q66 0 107 19.5t63.5 49.5t30.5 66.5t8 71.5v164q-2 4 -6 13.5t-20 9.5h-201 q-29 0 -29 26v131q0 10 9.5 18.5t21.5 8.5h434q63 0 121.5 17.5t124.5 58.5q16 8 23 8q14 0 24 -17l53 -94q6 -12 6 -22q0 -14 -18 -29q-68 -53 -146.5 -75.5t-138.5 -26.5q-18 -4 -27 -11.5t-9 -29.5v-150q0 -84 -26 -156.5t-78 -128t-133 -87t-194 -31.5h-45 q-117 0 -197.5 30.5t-130.5 83t-72 124t-22 155.5z" />
<glyph unicode="'" horiz-adv-x="419" d="M125 860v375q0 16 10 22.5t23 6.5h110q12 0 21.5 -7.5t9.5 -19.5l-2 -375q0 -16 -10.5 -22t-20.5 -6h-106q-14 0 -24.5 6t-10.5 20z" />
<glyph unicode="(" horiz-adv-x="718" d="M135 551q0 127 30 247t76 227.5t102 201.5t112 172q16 23 31.5 25.5t33.5 -7.5l82 -43q39 -16 14 -53q-51 -86 -97 -178t-81 -189.5t-55.5 -199t-20.5 -203.5q0 -96 18.5 -197.5t49.5 -199t73 -186.5t91 -163q20 -31 17 -48t-17 -27l-64 -39q-47 -29 -81 18 q-61 80 -118 175.5t-100 202t-69.5 223t-26.5 241.5z" />
<glyph unicode=")" horiz-adv-x="700" d="M88 1321q-25 37 14 53l82 43q18 10 33.5 7t32.5 -25q55 -78 111.5 -172t102.5 -201.5t75.5 -227.5t29.5 -247q0 -125 -26.5 -241.5t-69.5 -223t-99.5 -202t-117.5 -175.5q-35 -47 -82 -18l-63 39q-14 10 -17.5 27.5t17.5 47.5q49 74 91 163t72.5 186.5t49 199t18.5 197.5 q0 102 -20.5 203.5t-55.5 199t-81 189.5t-97 178z" />
<glyph unicode="*" horiz-adv-x="792" d="M68 1069l28 86q6 18 17.5 26.5t33.5 -1.5l172 -76q16 -8 13 10l-21 191q-2 16 6.5 26t34.5 10h86q47 0 41 -41l-22 -184q-2 -18 14 -12l170 74q41 16 51 -23l29 -84q6 -16 3 -29.5t-28 -19.5l-182 -37q-20 -4 -4 -20l123 -144q14 -16 7 -30.5t-11 -18.5l-74 -51 q-18 -12 -31.5 -13t-27.5 23l-82 146q-4 6 -10.5 11t-10.5 1q-4 4 -8 0t-6 -8l-90 -152q-10 -16 -21.5 -20t-31.5 12l-72 49q-16 12 -20.5 25.5t14.5 33.5l123 136q14 14 -2 18l-185 41q-36 10 -26 45z" />
<glyph unicode="+" d="M80 492v75q0 41 41 41h270q25 0 25 23v272q0 39 41 39h92q43 0 43 -39v-266q0 -16 4 -22.5t20 -6.5h281q41 0 41 -41v-73q0 -43 -41 -43h-281q-16 0 -20 -5.5t-4 -17.5v-270q0 -39 -43 -39h-90q-43 0 -43 39v272q0 20 -29 21h-266q-41 0 -41 41z" />
<glyph unicode="," horiz-adv-x="468" d="M100 -172l25 354q2 27 15.5 45.5t47.5 18.5h134q45 0 55 -20.5t0 -55.5l-109 -360q-10 -29 -25.5 -39.5t-37.5 -10.5h-62q-33 0 -38 22.5t-5 45.5z" />
<glyph unicode="-" horiz-adv-x="663" d="M90 420v117q0 29 31 28h409q31 0 31 -26v-117q0 -31 -29 -31h-409q-33 0 -33 29z" />
<glyph unicode="." horiz-adv-x="468" d="M98 117q0 53 40 92t95 39q57 0 97.5 -38t40.5 -93q0 -53 -40 -93t-95 -40q-57 0 -97.5 40t-40.5 93z" />
<glyph unicode="/" horiz-adv-x="655" d="M8 -120.5q-4 14.5 2 30.5l469 1440q8 20 20.5 26t41.5 6h69q23 0 29 -12t0 -29l-473 -1443q-10 -33 -49 -33h-80q-25 0 -29 14.5z" />
<glyph unicode="0" d="M119 344v582q0 86 29.5 151.5t82 111.5t123 69.5t154.5 23.5q82 0 153.5 -22.5t125 -67.5t83 -111.5t29.5 -154.5v-580q0 -86 -28.5 -153.5t-81 -112.5t-124 -68.5t-155.5 -23.5t-155.5 22.5t-124 67.5t-82 111.5t-29.5 154.5zM342 346q0 -74 47 -118t119 -44t119 42 t47 120v580q0 72 -46 116.5t-118 44.5t-120 -45t-48 -116v-580z" />
<glyph unicode="1" d="M217 926v125q0 20 4 34.5t23 26.5l213 133q27 18 61 19h105q39 0 39 -37v-1194q0 -33 -33 -33h-160q-33 0 -33 31v932q0 14 -8 20t-25 -4l-131 -74q-55 -28 -55 21z" />
<glyph unicode="2" d="M109 37v92q0 27 4 45.5t26 46.5l402 510q37 47 71.5 99.5t34.5 99.5q0 66 -44 111.5t-122 45.5q-59 0 -99 -26.5t-71 -63.5q-14 -18 -29.5 -26t-33.5 4l-88 65q-23 18 -27 32.5t10 33.5q68 98 159 137t202 39q80 0 147.5 -20.5t117.5 -61.5t77.5 -103.5t27.5 -146.5 q0 -43 -13 -85t-34.5 -82t-48 -75.5t-51.5 -68.5l-326 -414q-23 -29 15 -28h436q31 0 31 -29v-137q0 -16 -9.5 -23.5t-21.5 -7.5h-711q-32 0 -32 37z" />
<glyph unicode="3" d="M88 184q-14 33 12 49l125 70q16 10 25.5 4t19.5 -18q31 -47 76 -76t100 -29q74 0 122 40t48 124v62q0 100 -47 138t-135 38h-104q-35 0 -35 32v127q0 31 33 31h129q76 0 120 45t41 105v16q-2 63 -48 104t-117 41q-53 0 -98.5 -24.5t-73.5 -65.5q-10 -16 -25.5 -25 t-34.5 1l-98 57q-23 14 -27 29.5t6 38.5q57 98 154.5 141t206.5 43q86 0 155.5 -22.5t119.5 -66.5t78 -107.5t28 -143.5q0 -35 -10.5 -70.5t-29 -68.5t-46 -59.5t-60.5 -41.5q-12 -4 -12 -12t10 -14q80 -31 115 -99.5t35 -130.5v-84q0 -174 -104.5 -274t-280.5 -100 q-80 0 -150.5 17.5t-128.5 64.5q-59 48 -94 114z" />
<glyph unicode="4" d="M70 305v84q0 35 4 53.5t14 36.5l381 760q14 25 47 25h154q25 0 28.5 -15.5t-2.5 -25.5l-368 -742q-4 -6 -4 -14t16 -8h205q16 0 20 11t4 24v274q0 10 5.5 17.5t19.5 7.5h172q16 0 22.5 -8.5t6.5 -18.5v-270q0 -23 5 -30t21 -7h103q10 0 17 -5t7 -20v-139q0 -16 -7 -21.5 t-17 -5.5h-101q-12 0 -20 -6t-8 -24v-213q0 -10 -6.5 -17.5t-18.5 -7.5h-174q-16 0 -21.5 7t-5.5 18v215q0 29 -30 28h-433q-14 0 -25 8.5t-11 28.5z" />
<glyph unicode="5" d="M125 188q-20 31 10 48l127 67q18 10 26.5 2t16.5 -18q37 -49 75 -76t101 -27q76 0 127 42t51 114v149q0 66 -48 111t-122 45q-41 0 -69.5 -10t-52.5 -27q-18 -10 -35 -12t-37 6l-86 41q-18 10 -29.5 22.5t-11.5 34.5v531q0 33 33 33h614q33 0 33 -31v-135q0 -29 -31 -29 h-397q-29 0 -29 -25v-202q0 -33 35 -19q20 10 46 15.5t48 5.5q82 0 149.5 -26.5t116 -74t74 -112t25.5 -142.5v-139q0 -84 -30 -150.5t-83 -113.5t-125 -72.5t-158 -25.5q-127 0 -212.5 40.5t-151.5 159.5z" />
<glyph unicode="6" d="M111 340v586q0 82 29.5 148.5t81.5 112.5t123 70.5t155 24.5q66 0 126 -11t113 -46q49 -31 83 -74t46 -80q8 -23 -16 -37l-127 -65q-20 -12 -28.5 -3t-18.5 23q-35 47 -75 72.5t-101 25.5q-72 0 -120 -45t-48 -116v-129q0 -16 9 -22.5t26 3.5q29 23 74.5 36t80.5 13 q78 0 146.5 -24.5t120 -69.5t81 -110.5t29.5 -147.5v-135q0 -86 -30.5 -151.5t-83 -109.5t-124 -67.5t-153.5 -23.5q-86 0 -158.5 23.5t-126 68.5t-84 110.5t-30.5 149.5zM334 340q0 -72 51 -115t119 -43q70 0 121 44t51 114l2 135q0 74 -52.5 115t-123.5 41 q-33 0 -63.5 -11.5t-53.5 -33t-37 -50t-14 -61.5v-135z" />
<glyph unicode="7" d="M129 961v270q0 33 33 33h704q25 0 40.5 -9.5t15.5 -33.5v-68q0 -16 -6.5 -37.5t-12.5 -38.5l-489 -1050q-4 -10 -12.5 -18.5t-24.5 -8.5h-180q-16 0 -25.5 11.5t-1.5 27.5l459 989q6 14 2 26.5t-27 12.5h-239q-25 0 -33 -6t-8 -23v-75q0 -35 -31 -35h-129q-35 0 -35 33z " />
<glyph unicode="8" d="M98 371q0 92 44 172t110 116q16 10 0 21q-66 39 -98.5 110.5t-32.5 133.5q0 80 30.5 147.5t83 114.5t123 73.5t150.5 26.5q82 0 153.5 -24.5t124 -71.5t83 -113.5t30.5 -150.5q0 -68 -34 -134.5t-87 -105.5q-20 -14 -2 -27q59 -39 98 -110.5t39 -161.5q0 -96 -32.5 -171 t-88 -126t-130 -76.5t-158.5 -25.5q-82 0 -156 22.5t-129 69.5t-88 120t-33 171zM317 377q0 -94 52.5 -145.5t132.5 -51.5q78 0 135 55.5t57 147.5q0 86 -55 139t-133 53q-35 0 -69 -15t-60.5 -40.5t-43 -62.5t-16.5 -80zM332 926q0 -68 49 -118t127 -50t126 49t48 121 q0 68 -46 118t-128 50q-74 0 -125 -49t-51 -121z" />
<glyph unicode="9" d="M96 799v112q0 86 33 155t88 117t129 73.5t156 25.5q180 0 281.5 -95t101.5 -261v-566q0 -88 -30 -157.5t-82 -116.5t-122.5 -72.5t-154.5 -25.5q-61 0 -120 11t-108 36.5t-87 65.5t-56 98q-8 27 16 37l127 65q20 10 29.5 2t19.5 -22q35 -47 74 -73t103 -26q72 0 120 46 t48 132v119q0 16 -8.5 21.5t-24.5 -4.5q-31 -20 -77 -35t-81 -15q-80 0 -147.5 25t-118.5 70t-80 110.5t-29 147.5zM315 799q0 -74 51.5 -115t122.5 -41q68 0 118 44t50 112l2 125q0 72 -51 117.5t-121 45.5q-68 0 -120 -46t-52 -115v-127z" />
<glyph unicode=":" horiz-adv-x="468" d="M98 115q0 55 40 93t95 38v2q57 0 97.5 -38t40.5 -93q0 -53 -40 -93t-95 -40q-57 0 -97.5 39t-40.5 92zM98 674q0 53 40 92t95 39t96.5 -39t41.5 -90q0 -53 -40 -94t-95 -41q-57 0 -97.5 40t-40.5 93z" />
<glyph unicode=";" horiz-adv-x="468" d="M86 -170l20 350q4 29 17.5 48.5t48.5 19.5h133q45 0 54.5 -21.5t-1.5 -56.5l-104 -358q-10 -33 -25.5 -42.5t-38.5 -9.5h-61q-31 0 -37 23.5t-6 46.5zM98 672q0 53 39 92t96 39q55 0 96.5 -38t41.5 -91q0 -55 -40 -94t-98 -39q-55 0 -95 38t-40 93z" />
<glyph unicode="&#x3c;" d="M78 469v88q0 18 8 33.5t33 27.5q72 39 113.5 63t75.5 41t71 36.5t99.5 52.5t160.5 85t256 136q16 10 28.5 1t12.5 -25v-113q0 -14 -3 -28.5t-26 -24.5l-581 -307q-14 -8 -14.5 -18.5t14.5 -16.5l581 -303q23 -10 26 -24.5t3 -29.5v-120q0 -16 -12.5 -26.5t-28.5 -0.5 l-772 412q-27 14 -36 28.5t-9 32.5z" />
<glyph unicode="=" d="M70 272v90q0 37 41 37h794q16 0 29.5 -9t13.5 -25v-93h-2q0 -37 -39 -36h-796q-41 -1 -41 36zM70 627v92q0 37 41 37h794q18 0 30.5 -10.5t12.5 -26.5v-90q0 -39 -41 -39h-796q-41 0 -41 37z" />
<glyph unicode="&#x3e;" d="M80 23v120q0 14 3 28.5t26 25.5l581 301q14 8 14.5 18t-14.5 16l-581 310q-23 10 -26 24.5t-3 28.5v113q0 16 12 25t29 -1l776 -414q25 -12 33 -27.5t8 -33.5v-88q0 -18 -9 -32.5t-36 -28.5l-772 -412q-16 -10 -28.5 0.5t-12.5 26.5z" />
<glyph unicode="?" horiz-adv-x="1034" d="M182 1096q63 106 150.5 147t202.5 41q86 0 156.5 -22.5t121.5 -65.5t80 -106.5t29 -145.5q0 -53 -17.5 -100t-47.5 -89t-66.5 -75t-75.5 -57q-72 -45 -123 -92.5t-51 -120.5v-39q0 -20 -25 -21h-164q-23 0 -32 8.5t-9 32.5v53q0 80 48.5 158t132.5 133q76 49 132 95.5 t60 105.5q4 68 -39 111t-115 43q-78 0 -113.5 -33t-68.5 -80q-16 -23 -47 -4l-108 67q-31 19 -11 56zM285 115q0 53 41 92t96 39t95 -37t40 -94h2q0 -53 -39 -92t-98 -39q-55 0 -96 39t-41 92z" />
<glyph unicode="@" horiz-adv-x="1497" d="M104 598q0 141 51.5 262t141.5 210t216 140.5t273 51.5q137 0 254 -43t203 -120t135 -183.5t49 -231.5q0 -123 -28.5 -205t-73.5 -133t-101.5 -72.5t-109.5 -21.5q-61 0 -112.5 18.5t-79.5 51.5q-6 6 -11 6q-4 0 -10 -6q-33 -31 -79 -50.5t-93 -19.5q-113 0 -183.5 64.5 t-70.5 168.5t66.5 168t181.5 64q29 0 55.5 -9.5t46.5 -21.5q4 -2 9 -2q14 0 14 16v17q0 39 -26.5 62.5t-88.5 23.5q-37 0 -77 -12.5t-68 -24.5q-10 0 -19.5 3t-13.5 13l-25 72q-4 10 0.5 18.5t12.5 12.5q100 47 209 47q139 0 200.5 -70.5t61.5 -175.5v-188q0 -49 22.5 -82 t81.5 -33q25 0 54.5 12.5t55 45t42 89t16.5 146.5q0 109 -45 194.5t-116.5 145t-158.5 90.5t-173 31q-117 0 -217.5 -42t-174 -114t-114.5 -171t-41 -212q0 -115 40 -214t112.5 -173t174 -116t226.5 -42q162 0 323 66q20 6 34.5 8t25.5 -27l18 -51q12 -47 -22 -57 q-84 -31 -176.5 -48.5t-192.5 -17.5q-158 0 -288 46t-222 133.5t-143.5 211t-51.5 281.5zM635 489q0 -41 28.5 -70.5t73.5 -29.5t73 30t28 70q0 35 -25 68t-76 33q-45 0 -73.5 -30t-28.5 -71z" />
<glyph unicode="A" horiz-adv-x="987" d="M31 27q0 7 2 14l299 1194q10 29 43 29h233q14 0 24.5 -3.5t14.5 -23.5l307 -1194q2 -6 3 -14q0 -6 -2 -13q-3 -16 -31 -16h-166q-33 0 -41 27l-47 204q-4 16 -9.5 22.5t-17.5 6.5h-303q-16 0 -20.5 -8t-8.5 -19q-4 -16 -10 -43.5t-13 -59.5t-13.5 -60.5t-10.5 -42.5 t-15 -20.5t-24 -6.5h-157q-29 0 -34 12q-3 7 -3 15zM370 460.5q0 -3.5 1 -5.5q2 -4 14 -4h213q15 0 15 10q0 4 -3 10l-65 287l-49 235q-2 9 -8 10q-4 0 -7 -10l-47 -231l-63 -293q-1 -5 -1 -8.5z" />
<glyph unicode="B" horiz-adv-x="1056" d="M123 35v1194q0 35 37 35h413q172 0 271.5 -85t99.5 -249q0 -66 -40 -136.5t-99 -109.5q-8 -8 2 -12q92 -41 135 -121t43 -166t-26.5 -156.5t-77 -122t-122 -79t-163.5 -27.5h-436q-37 0 -37 35zM354 233q0 -16 6.5 -21t24.5 -5h207q74 0 115 51t41 123q0 35 -9.5 68.5 t-30 60.5t-53 43t-82.5 16h-188q-18 0 -24.5 -7t-6.5 -23v-306zM354 801q0 -33 27 -33h186q70 0 107 44t37 108q0 66 -39 103.5t-109 37.5h-184q-25 0 -25 -27v-233z" />
<glyph unicode="C" horiz-adv-x="966" d="M121 352v568q0 82 29.5 149.5t83 114.5t126 73.5t158.5 26.5q106 0 203.5 -38t175.5 -148q10 -12 9 -26.5t-19 -27.5l-111 -83q-16 -10 -31.5 -4t-23.5 20q-70 102 -195 102q-86 0 -130 -50t-44 -118v-559q0 -66 45 -111.5t131 -45.5q57 0 106.5 27.5t84.5 68.5l21 21 q11 11 32 -1l123 -75q14 -8 19 -22q2 -5 2 -10q0 -8 -5 -18q-72 -109 -171 -153.5t-216 -44.5q-90 0 -163.5 25.5t-127 72.5t-83 114.5t-29.5 151.5z" />
<glyph unicode="D" horiz-adv-x="1081" d="M129 35v1194q0 35 39 35h414q195 0 290 -100.5t95 -276.5v-504q0 -180 -95.5 -281.5t-283.5 -101.5h-420q-39 0 -39 35zM362 240q0 -33 33 -33h168q92 0 132 47t40 129v502q0 94 -48 135t-132 41h-158q-23 0 -29 -9.5t-6 -25.5v-786z" />
<glyph unicode="E" horiz-adv-x="958" d="M125 35v1194q0 35 37 35h682q14 0 24.5 -7.5t10.5 -25.5v-133q0 -37 -33 -37h-457q-20 0 -26.5 -6t-6.5 -21v-246q0 -35 33 -34h377q33 0 33 -37v-131q0 -35 -33 -35h-379q-18 0 -24.5 -7t-6.5 -24v-282q0 -18 8.5 -24.5t28.5 -6.5h463q33 0 33 -35v-135q0 -37 -33 -37 h-694q-37 0 -37 35z" />
<glyph unicode="F" horiz-adv-x="899" d="M127 35v1194q0 35 37 35h676q33 0 32 -33v-133q0 -37 -32 -37h-453q-29 0 -29 -27v-256q0 -16 5.5 -22t21.5 -6h375q33 0 33 -37v-133q0 -37 -33 -37h-373q-29 0 -29 -35v-471q0 -37 -36 -37h-158q-37 0 -37 35z" />
<glyph unicode="G" horiz-adv-x="1048" d="M123 346v578q0 82 30.5 148.5t85 113.5t128 72.5t159.5 25.5q55 0 110.5 -9t106 -30.5t94.5 -58.5t76 -94q8 -12 7.5 -26.5t-17.5 -25.5l-117 -84q-16 -8 -29.5 -0.5t-25.5 21.5q-74 100 -196 100q-84 0 -133.5 -49t-49.5 -121v-555q0 -72 51.5 -114.5t133.5 -42.5 q74 0 124 43t50 122v127q0 23 -21 23h-110q-37 0 -37 33v133q0 33 37 33h321q41 0 41 -33v-328q0 -86 -30.5 -152.5t-86 -112.5t-130 -70.5t-163.5 -24.5q-88 0 -162.5 24.5t-130 70.5t-86 112.5t-30.5 150.5z" />
<glyph unicode="H" horiz-adv-x="1126" d="M129 31v1202q0 31 39 31h158q16 0 26 -6.5t10 -22.5v-449q0 -23 5.5 -29.5t23.5 -6.5h342q18 0 25.5 7t7.5 29v447q0 31 35 31h157q39 0 39 -29v-1202q0 -33 -36 -33h-158q-37 0 -37 31v481q0 35 -35 35h-334q-23 0 -29 -9.5t-6 -25.5v-479q0 -33 -36 -33h-158 q-39 0 -39 31z" />
<glyph unicode="I" horiz-adv-x="526" d="M143 31v1202q0 31 37 31h160q37 0 37 -31v-1200q0 -33 -37 -33h-160q-37 0 -37 31z" />
<glyph unicode="J" horiz-adv-x="632" d="M-11 -141q1 6 2 11q3 11 25 21q61 25 105.5 53.5t72 65.5t41 86t13.5 117v1024q0 27 31 27h167q31 0 31 -27v-1042q0 -94 -19.5 -175t-65.5 -145.5t-120.5 -112t-187.5 -73.5q-8 -2 -16 -2t-16 2q-15 4 -19 26l-41 127q-2 9 -3 17z" />
<glyph unicode="K" horiz-adv-x="1093" d="M131 31v1200q0 33 35 33h166q31 0 30 -31v-426q0 -16 8.5 -14t16.5 8l354 440q12 14 22.5 18.5t33.5 4.5h182q18 0 23 -12q2 -4 2 -7q0 -8 -7 -18l-358 -447q-16 -23 8 -22h32q15 0 32 -4q129 -20 192.5 -110.5t63.5 -227.5l26 -383q0 -33 -28 -33h-164q-31 0 -33 31 l-25 370q-2 33 -11 67t-29.5 61.5t-55.5 44t-88 16.5q-92 0 -143 -55.5t-51 -139.5l-3 -362q0 -33 -28 -33h-174q-29 0 -29 31z" />
<glyph unicode="L" horiz-adv-x="923" d="M135 35v1198q0 31 35 31h160q37 0 37 -29v-997q0 -16 3 -23.5t23 -7.5h465q33 0 33 -35v-135q0 -37 -31 -37h-688q-37 0 -37 35z" />
<glyph unicode="M" horiz-adv-x="1343" d="M111 35v1188q0 41 43 41h127q25 0 38 -4.5t25 -30.5q6 -16 23.5 -60.5t40 -102.5t48 -123.5t47 -124t39 -102.5t23.5 -61l101 -268q8 -20 18 0q4 14 18.5 53t31 82t30.5 82t20 53l222 572q16 35 63 35h121q43 0 43 -41v-1188q0 -35 -37 -35h-149q-35 0 -35 31v653 q0 10 -11 0l-83 -223l-150 -387q-8 -16 -18.5 -26.5t-30.5 -10.5h-94q-20 0 -32.5 4t-23.5 27l-145 383l-82 229q-2 2 -5 3t-3 -3v-649q0 -31 -37 -31h-150q-36 0 -36 35z" />
<glyph unicode="N" horiz-adv-x="1124" d="M125 29v1185q0 49 47 50h104q29 0 42.5 -8.5t23.5 -28.5l426 -748q4 -4 6 -3t2 5v750q0 33 35 33h147q37 0 37 -33v-1190q0 -25 -12 -33t-31 -8h-104q-25 0 -38 4t-26 27l-417 727q-4 10 -10.5 9t-6.5 -13v-725q0 -29 -39 -29h-147q-39 0 -39 29z" />
<glyph unicode="O" horiz-adv-x="1083" d="M121 360v549q0 86 31.5 156t88 119t133.5 74.5t167 25.5q88 0 163.5 -25.5t133 -73.5t90.5 -118t33 -158v-549q0 -86 -32 -155.5t-87.5 -117.5t-132 -73.5t-166.5 -25.5t-167 25.5t-133.5 72.5t-89 116.5t-32.5 157.5zM352 362q0 -72 48.5 -119.5t140.5 -47.5 q86 0 136 48t50 119v545q0 72 -46 121t-138 49t-141.5 -49t-49.5 -121v-545z" />
<glyph unicode="P" horiz-adv-x="995" d="M127 33v1200q0 31 39 31h381q92 0 164.5 -28t124 -79t79 -120.5t27.5 -151.5q0 -80 -29.5 -147.5t-82 -117t-124 -77t-157.5 -27.5h-164q-16 0 -20.5 -7t-4.5 -17v-459q0 -33 -36 -33h-158q-39 0 -39 33zM358 750q0 -31 29 -31h160q74 0 119 47t45 123q0 66 -42 119 t-122 53h-160q-29 0 -29 -31v-280z" />
<glyph unicode="Q" horiz-adv-x="1083" d="M121 360v549q0 86 31.5 156t88 119t133.5 74.5t167 25.5q88 0 163.5 -25.5t133 -73.5t90.5 -118t33 -158v-549q0 -145 -85 -239t-223 -121q-18 -2 -18 -27q4 -41 21.5 -58t52.5 -17q16 0 50 7t68 17q35 14 43 -14l31 -94q4 -14 2 -24.5t-20 -20.5q-47 -29 -104.5 -39.5 t-102.5 -10.5q-123 0 -184.5 67t-61.5 191q0 23 -20 27q-127 31 -208 123t-81 233zM352 362q0 -72 48.5 -119.5t140.5 -47.5q86 0 136 48t50 119v545q0 72 -46 121t-138 49t-141.5 -49t-49.5 -121v-545z" />
<glyph unicode="R" horiz-adv-x="1050" d="M131 31v1198q0 35 33 35h405q186 0 289 -96.5t103 -270.5q0 -109 -54.5 -200t-126.5 -156q-12 -14 -4 -31q0 -2 18.5 -41t48 -103.5t68.5 -148.5t82 -172q5 -11 6 -19q0 -8 -5 -14q-9 -12 -29 -12h-156q-41 0 -54.5 12.5t-23.5 32.5l-188 424q-4 18 -27 18h-135 q-18 0 -19 -22v-432q0 -33 -38 -33h-156q-37 0 -37 31zM362 719q0 -14 5.5 -21.5t23.5 -7.5h197q10 0 22.5 4t18.5 8q49 39 72.5 91.5t23.5 91.5q0 76 -42 126t-132 50h-158q-18 0 -24.5 -7t-6.5 -24v-311z" />
<glyph unicode="S" horiz-adv-x="997" d="M59 177q0 14 17 34l80 90q18 20 31.5 16t33.5 -20q53 -47 128 -75.5t134 -28.5q111 0 161 45t50 114q0 43 -20.5 74t-57 55.5t-85 44t-103.5 37.5q-59 20 -117.5 48t-105.5 69t-77 99.5t-30 140.5q0 84 32 150.5t86 113.5t126 71.5t154 24.5q102 0 191 -22.5t165 -71.5 q23 -16 21.5 -29.5t-15.5 -36.5l-53 -98q-10 -16 -26.5 -19.5t-35.5 5.5q-59 31 -119.5 51t-115.5 20q-72 0 -126 -34.5t-54 -122.5q0 -37 21.5 -65t53 -48.5t69.5 -34.5t71 -26q66 -25 134 -52.5t123.5 -69.5t91.5 -105.5t36 -158.5q0 -90 -34 -158.5t-92.5 -116.5 t-139 -72.5t-173.5 -24.5q-113 0 -222 36.5t-187 116.5q-21 19 -21 34z" />
<glyph unicode="T" horiz-adv-x="903" d="M35 1098v131q0 35 35 35h766q31 0 30 -33v-133q0 -16 -6 -26.5t-24 -10.5h-242q-33 0 -33 -27l-2 -1001q0 -33 -37 -33h-157q-37 0 -37 31l2 1001q0 14 -5.5 21.5t-25.5 7.5h-229q-35 0 -35 37z" />
<glyph unicode="U" horiz-adv-x="1083" d="M121 356v877q0 31 37 31h157q16 0 26.5 -6.5t10.5 -22.5v-879q0 -68 51.5 -114.5t137.5 -46.5t137 47t51 116v875q0 31 37 31h158q39 0 39 -29v-879q0 -86 -33 -154.5t-90.5 -116.5t-134 -72.5t-162.5 -24.5q-88 0 -165 24.5t-134.5 72.5t-90 116.5t-32.5 154.5z" />
<glyph unicode="V" horiz-adv-x="980" d="M21 1232q0 10 5 18q7 13 35 14h164q16 0 26.5 -3.5t14.5 -19.5l148 -586l80 -329q2 -6 6 -6.5t6 6.5q4 18 14 65t22.5 99.5t24 99.5t15.5 65l143 586q4 14 15.5 18.5t23.5 4.5h160q35 0 38 -15q1 -6 1 -12q0 -8 -2 -16l-330 -1190q-8 -31 -49 -31h-176q-18 0 -29.5 6 t-18.5 25l-335 1190q-1 6 -2 11z" />
<glyph unicode="W" horiz-adv-x="1474" d="M23 1225v12q0 10 5 18.5t27 8.5h170q33 0 37 -31l125 -627l39 -227q2 -6 6 -5t6 7l43 219l140 637q2 10 10 18.5t31 8.5h149q12 0 22.5 -6.5t14.5 -22.5q37 -160 76 -318.5t69 -318.5l45 -217q2 -10 7.5 -11t7.5 9q10 55 19 111.5t18 111.5q8 53 23 136t32.5 173 t34 176.5t26.5 147.5q6 29 39 29h160q23 0 31 -8.5t8 -20.5q0 -8 -2 -14l-268 -1194q-8 -27 -48 -27h-163q-16 0 -29.5 4t-18.5 21l-143 659q-10 41 -17 81t-16 81q0 4 -4 4q-2 0 -2 -2q-4 0 -4 -2q-8 -45 -18.5 -92t-18.5 -95q-35 -160 -69.5 -316.5t-69.5 -315.5 q-4 -16 -15.5 -21.5t-31.5 -5.5h-164q-18 0 -28.5 3t-16.5 20z" />
<glyph unicode="X" horiz-adv-x="983" d="M27 27q0 12 6 24l309 574q4 8 8 21t4 20q0 14 -14 36l-277 519q-4 12 -4 18q0 27 37 27h174q39 0 60 -35q4 -10 9 -21.5t11 -21.5l137 -293q8 -8 13 -8q4 0 10 10q41 84 80 166t80 168q23 35 57 35h166q37 0 37 -25q0 -6 -2 -12t-6 -15l-277 -520q-8 -20 -8 -32t10 -33 q78 -145 158 -293t158 -293q6 -10 6 -18q0 -25 -39 -25h-166q-23 0 -36 5t-23 28q-51 100 -99.5 199.5t-99.5 199.5q-4 10 -10 10t-11 -10l-196 -399q-12 -25 -25.5 -29t-36.5 -4h-164q-36 0 -36 27z" />
<glyph unicode="Y" horiz-adv-x="952" d="M27 1241q0 5 1 9q3 13 31 14h162q23 0 36 -5.5t24 -27.5l184 -498q12 -12 18 -2q47 123 94.5 248t90.5 248q10 20 21 28.5t42 8.5h152q33 0 37 -14q2 -5 1 -11q0 -8 -3 -16l-316 -729q-8 -16 -10 -26.5t-2 -27.5v-403q0 -37 -37 -37h-158q-37 0 -37 35v409q0 25 -10 45 l-317 732q-4 11 -4 20z" />
<glyph unicode="Z" horiz-adv-x="903" d="M61 53v60q0 37 21 71q16 31 52 97.5t81 151.5t95 177t95.5 177t81 152t52.5 97q4 10 1 17.5t-18 7.5h-389q-33 0 -33 37v135q0 31 37 31h637q53 0 53 -45v-72q0 -25 -9 -49.5t-17 -40.5l-443 -826q-18 -25 11 -24h444q14 0 24.5 -8.5t10.5 -26.5v-139q0 -33 -35 -33h-692 q-33 0 -46.5 15t-13.5 38z" />
<glyph unicode="[" horiz-adv-x="720" d="M184 -274v1658q0 33 33 33h334q33 0 33 -33v-122q0 -33 -33 -33h-109q-20 0 -27 -10.5t-7 -26.5v-1272q0 -37 34 -37h109q33 0 33 -33v-122q0 -33 -33 -33h-334q-33 0 -33 31z" />
<glyph unicode="\" horiz-adv-x="655" d="M10 1341q-6 16 0 28.5t29 12.5h70q29 0 41 -6t20 -26l469 -1440q6 -16 2 -30.5t-29 -14.5h-80q-39 0 -49 33z" />
<glyph unicode="]" horiz-adv-x="710" d="M102 -150q0 31 33 31h109q35 0 35 37v1272q0 39 -35 39h-109q-33 0 -33 31v124q0 33 33 33h334q33 0 33 -33v-1658q-4 -31 -33 -31h-334q-33 0 -33 31v124z" />
<glyph unicode="^" horiz-adv-x="1161" d="M168 842l311 411q10 14 21.5 22.5t40.5 8.5h80q25 0 38 -8t25 -25l303 -399q12 -16 12 -35.5t-22 -36.5l-47 -35q-20 -14 -39 -4.5t-39 31.5l-260 272q-16 16 -31 9q-4 -2 -8 -6l-8 -9l-246 -280q-18 -23 -34.5 -28t-37.5 9l-53 37q-39 23 -6 66z" />
<glyph unicode="_" horiz-adv-x="1024" d="M-23 -205q0 29 33 29h1000q35 0 34 -27v-108q-4 -27 -32 -27h-1002q-33 0 -33 27v106z" />
<glyph unicode="`" horiz-adv-x="931" d="M268 1290.5q-4 16.5 19 28.5l123 67q16 10 27.5 4t21.5 -20l176 -293q18 -29 -10 -43l-50 -28q-39 -20 -65 8l-231 252q-7 8 -11 24.5z" />
<glyph unicode="a" horiz-adv-x="946" d="M78 305q0 143 92 231.5t258 88.5q84 0 158 -43q10 -6 19 -5t9 17v24q0 61 -36.5 92t-120.5 31q-23 0 -50.5 -4t-57.5 -10t-58.5 -14t-48.5 -17q-35 -14 -45 19l-37 104q-6 14 0 25.5t16 15.5q70 33 146.5 49.5t154.5 16.5q98 0 167 -23.5t112 -67.5t62.5 -107.5 t19.5 -141.5v-557q0 -29 -27 -29h-160q-23 0 -22 23v16q0 31 -29 8t-74 -41t-110 -18q-158 0 -248 83.5t-90 233.5zM285 309q0 -63 40 -107t115 -44q82 0 120 46t38 105q-2 61 -42 105.5t-114 44.5q-78 0 -117.5 -43.5t-39.5 -106.5z" />
<glyph unicode="b" horiz-adv-x="958" d="M111 31v1241q0 33 32 33h158q33 0 33 -31v-393q0 -18 9 -18.5t28 9.5q35 23 79 37.5t97 14.5q88 0 150.5 -28t101.5 -75t57 -110.5t18 -137.5v-233q0 -72 -21.5 -135.5t-63 -111.5t-104 -75.5t-142.5 -27.5q-53 0 -105.5 14t-81.5 47q-20 25 -26 0q-2 0 -2 -10t-2 -12 q-4 -10 -8.5 -19.5t-20.5 -9.5h-154q-32 0 -32 31zM334 340q0 -66 40 -111t118 -45t118.5 42t40.5 114v233q0 66 -36.5 112t-120.5 46q-72 0 -116 -46t-44 -112v-233z" />
<glyph unicode="c" horiz-adv-x="864" d="M84 338v231q0 82 28.5 147.5t81 111.5t123 71t156.5 25q117 0 200 -46.5t142 -144.5q3 -8 3 -20q0 -22 -17 -33l-115 -66q-27 -16 -39 -3.5t-22 30.5q-27 45 -69 67.5t-85 22.5q-70 0 -116 -45t-46 -111v-239q0 -66 46 -109t114 -43q45 0 87 20.5t67 65.5q10 18 23 30.5 t40 -3.5l115 -64q17 -10 17 -32q0 -15 -3 -23q-119 -190 -342 -190q-88 0 -159.5 24.5t-123 70.5t-79 110.5t-27.5 144.5z" />
<glyph unicode="d" horiz-adv-x="958" d="M88 340v231q0 74 22.5 138.5t66.5 112.5t108.5 75t146.5 27q55 0 97 -14.5t63 -30.5q18 -12 27.5 -9.5t9.5 15.5v387q0 33 33 33h157q35 0 35 -31v-1243q0 -31 -33 -31h-153q-33 0 -33 29v16q0 6 -4 11t-19 -3q-6 -4 -13 -9t-17 -11q-29 -20 -75 -32.5t-89 -12.5 q-88 0 -150.5 26.5t-102.5 73.5t-58.5 111.5t-18.5 140.5zM311 342q0 -68 39 -113t121 -45q68 0 113 45t45 111v231q0 66 -43 113t-115 47q-82 0 -121 -46t-39 -112v-231z" />
<glyph unicode="e" horiz-adv-x="937" d="M90 336v231q0 80 27.5 145.5t79 113.5t122 74t154.5 26q82 0 152.5 -24.5t122 -72t80 -114t28.5 -148.5v-96q0 -29 -16.5 -45t-40.5 -16h-443q-23 0 -32 -10.5t-9 -24.5v-31q0 -66 43 -114t115 -48q61 0 103 31t71 66q10 12 20.5 17t28.5 -7l101 -64q18 -12 27.5 -24.5 t-1.5 -30.5q-53 -96 -146 -139t-200 -43q-88 0 -159.5 24.5t-122 70.5t-78 110.5t-27.5 142.5zM319 588q0 -29 35 -29h248q16 0 24 11q6 9 5 21q0 61 -52 104q-44 36 -104 36q-68 0 -109 -42t-47 -101z" />
<glyph unicode="f" horiz-adv-x="634" d="M29 760v119q0 31 32 30h74q25 0 25 23v115q0 55 18.5 104t54 86t88 58.5t119.5 21.5q47 0 88 -6t68 -17q16 -4 30 -13q10 -7 10 -24q0 -5 -1 -12l-25 -117q-6 -28 -35 -28q-11 0 -24 4q-14 4 -40 8t-40 4q-45 0 -67.5 -27.5t-22.5 -72.5v-86q0 -20 25 -21h157 q33 0 33 -30v-119q0 -31 -31 -31h-155q-18 0 -23.5 -9t-5.5 -20v-669q0 -31 -33 -31h-158q-33 0 -32 31v667q0 12 -5.5 21.5t-19.5 9.5h-74q-30 0 -30 31z" />
<glyph unicode="g" horiz-adv-x="962" d="M63 104q0 47 31 102.5t82 88.5q23 14 4 31q-49 41 -80.5 106.5t-31.5 151.5q0 72 30.5 134t82.5 108t119 72t140 26q133 0 238 -70q20 -14 37 0q94 68 196 68q35 0 35 -35v-125q0 -16 -5 -22.5t-26 -4.5q-16 2 -46.5 1t-53.5 -5q-8 -2 -13 -8t-1 -16q27 -59 26 -123 q0 -74 -30.5 -137.5t-82.5 -109.5t-123 -71.5t-151 -25.5h-49q-41 -2 -70.5 -33t-41.5 -68q-4 -10 1 -14t11 -2q53 10 112.5 15t90.5 5q80 0 157.5 -14t137 -47t96.5 -86t37 -133q0 -41 -16.5 -82t-43 -77t-62.5 -64.5t-75 -47.5q-20 -8 -39 -11h-6q-14 0 -23 13l-63 97 q-7 9 -7 18q0 18 27 35q10 6 24.5 17.5t28 26.5t22.5 32.5t9 36.5q0 31 -19.5 51t-50 32.5t-65.5 16.5t-65 4q-33 0 -74 -3t-85 -8l-88 -10q-44 -5 -81 -12q-29 -4 -42 3.5t-24 19.5q-23 29 -32 64.5t-9 88.5zM287 573q0 -59 41 -103t112 -44q80 0 122 44t42 103 q0 61 -42 106.5t-111 45.5q-76 0 -120 -46.5t-44 -105.5z" />
<glyph unicode="h" horiz-adv-x="983" d="M113 31q0 125 1 246.5t1 264t-1 318.5t-1 412q0 33 30 33h160q33 0 33 -33v-387q0 -33 35 -11q37 25 86 37.5t90 12.5q86 0 147.5 -27t102.5 -73t60.5 -111.5t19.5 -141.5v-538q0 -33 -33 -33h-158q-35 0 -35 31v540q0 68 -38 113t-117 45q-74 0 -116 -47t-42 -115v-534 q0 -33 -33 -33h-160q-32 0 -32 31z" />
<glyph unicode="i" horiz-adv-x="458" d="M98 1155q0 53 38 90t93 37q53 0 93 -37t40 -90q0 -51 -38.5 -90t-92.5 -39q-55 0 -94 38t-39 91zM117 31v846q0 32 28 32h2h160q33 0 33 -32v-844q0 -33 -31 -33h-159q-33 0 -33 31z" />
<glyph unicode="j" horiz-adv-x="475" d="M-81 -328q0 6 1 13l21 118q4 20 15 25.5t40 1.5q10 -2 27.5 -4t27.5 -2q43 2 61.5 24.5t18.5 71.5v957q0 33 33 32h160q31 0 30 -32v-983q0 -55 -14 -104.5t-46 -86.5t-83 -59.5t-127 -22.5q-45 0 -76 5t-51 9q-16 4 -29 14q-9 7 -9 23zM111 1155q0 53 38.5 90t94.5 37 q53 0 93 -37t40 -90t-40 -91t-93 -38q-55 0 -94 37t-39 92z" />
<glyph unicode="k" horiz-adv-x="954" d="M113 29v1243q0 33 30 33h160q31 0 31 -31v-647q0 -16 9 -18.5t17 5.5l240 273q12 12 21.5 15t31.5 3h199q18 0 22.5 -12t-6.5 -23q-63 -72 -125.5 -141.5t-128.5 -138.5q-6 -12 -6 -15q0 -10 13 -10q74 -4 122 -32.5t77.5 -74.5t41.5 -106.5t17 -126.5l8 -188v-6 q0 -31 -33 -31h-156q-20 0 -26 8t-8 25l-11 190q-2 37 -10 69t-25.5 55.5t-47 37.5t-74.5 14q-47 0 -78 -15t-49.5 -41t-25.5 -58.5t-7 -67.5v-188q0 -29 -31 -29h-166q-26 0 -26 29z" />
<glyph unicode="l" horiz-adv-x="514" d="M125 264v1012q0 29 27 29h167q29 0 29 -27v-987q0 -59 16.5 -81t65.5 -22h23q18 0 23 -13t5 -23v-127q0 -23 -10 -29t-27 -8q-18 -4 -40 -4h-29q-139 0 -194.5 67.5t-55.5 212.5z" />
<glyph unicode="m" horiz-adv-x="1480" d="M109 29v544q0 76 25.5 140.5t73.5 110.5t114.5 73t150.5 27q72 0 142.5 -32t111.5 -79l7 -7q3 -3 7 -3q6 0 15 8q41 47 114.5 80t149.5 33q84 0 149.5 -26t111.5 -73t69.5 -111.5t23.5 -140.5v-542q0 -31 -33 -31h-159q-31 0 -31 29v544q0 63 -36 109.5t-116 46.5 q-29 0 -55 -13.5t-46.5 -35t-33 -50t-12.5 -57.5v-542q0 -31 -33 -31h-157q-33 0 -33 29v544q0 63 -41 109.5t-107 46.5q-68 0 -107.5 -46t-39.5 -110v-542q0 -31 -35 -31h-160q-30 0 -30 29z" />
<glyph unicode="n" horiz-adv-x="983" d="M111 31v846q0 33 32 32h160q29 0 29 -30v-17q0 -14 2 -14q4 -23 22 0q35 33 95.5 53.5t113.5 20.5q162 0 235.5 -97.5t73.5 -251.5v-540q0 -33 -30 -33h-160q-33 0 -33 31v538q0 70 -36.5 114t-122.5 44q-72 0 -114 -44t-42 -112v-538q0 -33 -35 -33h-158q-32 0 -32 31z " />
<glyph unicode="o" horiz-adv-x="958" d="M96 332v246q0 78 28 141t78 109t119.5 72t155.5 26q174 0 278.5 -90.5t104.5 -257.5v-240q0 -172 -103.5 -261t-277.5 -89q-176 0 -279.5 92t-103.5 252zM319 340q0 -70 40 -114t118 -44q74 0 117 43t43 115v231q0 72 -41 115t-119 43q-76 0 -117 -44t-41 -114v-231z" />
<glyph unicode="p" horiz-adv-x="962" d="M109 -338v1215q0 31 32 30h154q31 0 31 -28v-17q0 -6 5 -12t17 4q35 25 83 45.5t116 20.5q82 0 143.5 -27t102.5 -74t60 -111.5t19 -140.5v-248q0 -70 -22.5 -130t-65.5 -106t-106.5 -72.5t-145.5 -26.5q-55 0 -98 14t-65 31q-35 23 -35 -6v-359q0 -33 -33 -33h-158 q-34 0 -34 31zM334 336q0 -66 42 -113t113 -47q86 0 123 46t37 114v229q0 68 -40 113t-117 45q-70 0 -115 -45q-43 -43 -43 -105v-6v-231z" />
<glyph unicode="q" horiz-adv-x="962" d="M102 334v231q0 76 21.5 140.5t64.5 111.5t106.5 75t147.5 28q66 0 111 -18.5t76 -47.5q12 -10 16 -4t4 12v17q0 29 31 28h154q33 0 32 -30v-1215q0 -31 -32 -31h-158q-33 0 -33 31v358q0 33 -37 9q-23 -16 -67.5 -30.5t-100.5 -14.5q-166 0 -251 91t-85 259zM326 336 q0 -76 43 -118t114 -42q72 0 115 46t43 112v233v6q0 62 -43 105q-45 45 -113 45t-113.5 -45t-45.5 -111v-231z" />
<glyph unicode="r" horiz-adv-x="651" d="M115 31v846q0 33 32 32h140q33 0 32 -30v-64q0 -12 7.5 -15t15.5 7q33 45 90 82t131 37q16 0 37 -2t37 -9q23 -6 26 -16q1 -4 1 -10q0 -7 -2 -17l-35 -143q-4 -23 -13.5 -28t-25.5 -3q-41 10 -68 11q-51 0 -86 -16.5t-55.5 -46.5t-29.5 -69.5t-9 -87.5v-456 q0 -33 -35 -33h-158q-32 0 -32 31z" />
<glyph unicode="s" horiz-adv-x="845" d="M63 198.5q0 12.5 15 20.5l115 64q29 16 47 -9q82 -102 198 -102q41 0 81 22.5t40 63.5q0 35 -24.5 55.5t-71.5 36.5q-29 10 -68 21.5t-78 23.5q-100 35 -163.5 92.5t-63.5 159.5q0 68 26.5 120t73 87t105.5 52.5t125 17.5q78 0 164 -26t151 -85q10 -10 8 -23.5t-10 -25.5 l-65 -96q-10 -10 -23 -11q-10 0 -26.5 10.5t-36.5 20.5q-47 23 -88 35t-82 12q-45 0 -76 -20.5t-31 -59.5q0 -53 96 -86q59 -18 126 -39.5t123.5 -55.5t93 -84t36.5 -126q0 -66 -26.5 -117t-73.5 -85.5t-110.5 -53t-137.5 -18.5q-53 0 -106.5 9t-101.5 30.5t-88 56.5t-66 88 q-7 12 -7 24.5z" />
<glyph unicode="t" horiz-adv-x="667" d="M31 758v119q0 33 32 32h72q29 0 29 29v154q0 33 33 41l149 32q8 1 14 2q12 0 18 -6q9 -8 9 -24v-201q0 -10 5 -18.5t24 -8.5h162q33 0 32 -32v-117q0 -33 -32 -33h-166q-25 0 -25 -20v-414q0 -49 19.5 -76t68.5 -27q16 0 46 4.5t46 8.5q35 6 47.5 -2t16.5 -31l20 -109 q1 -7 1 -13q0 -18 -9 -24q-12 -9 -29 -16q-37 -12 -84 -15t-92 -5q-80 0 -132 20.5t-84 56t-44 85t-12 104.5v451q0 23 -25 22h-75q-35 0 -35 31z" />
<glyph unicode="u" horiz-adv-x="970" d="M96 336v541q0 32 29 32h2h160q35 0 35 -30v-541q0 -66 43 -112t114 -46q72 0 115 45t43 113v539q0 32 31 32h2h157q35 0 35 -30v-846q0 -33 -33 -33h-161q-29 0 -29 29v22q0 8 -8 8t-15 -6q-31 -29 -79 -48t-99 -19q-80 0 -143.5 25.5t-107.5 71.5t-67.5 110.5 t-23.5 142.5z" />
<glyph unicode="v" horiz-adv-x="884" d="M24 881q1 7 4 14q7 14 29 14h150q25 0 39 -11t18 -28l103 -348l67 -248q4 -10 9.5 -10t9.5 8l63 242l102 348q4 12 15.5 29.5t40.5 17.5h153q23 0 29 -15q4 -9 4 -17q0 -5 -2 -11l-295 -839q-8 -27 -49 -27h-143q-23 0 -33 6t-19 29l-290 829q-4 9 -5 17z" />
<glyph unicode="w" horiz-adv-x="1345" d="M20 883q1 7 4 13q7 13 29 13h156q45 0 53 -39l66 -286l55 -258q2 -8 8 -8.5t10 8.5l70 254l86 284q6 20 16.5 32.5t32.5 12.5h127q16 0 27.5 -6t21.5 -35l99 -321l61 -221q2 -6 9 -7.5t10 7.5l45 219l69 321q6 18 17.5 30.5t40.5 12.5h151q25 0 30 -14q3 -8 3 -16 q0 -6 -2 -13l-236 -829q-6 -23 -19 -30t-30 -7h-131q-23 0 -34 5t-19 30l-103 325l-67 250q-4 6 -8 8.5t-9 -8.5l-71 -264l-96 -313q-8 -25 -21.5 -29t-30.5 -4h-131q-23 0 -34 6t-19 29l-231 831q-4 9 -5 17z" />
<glyph unicode="x" horiz-adv-x="835" d="M18 25q0 12 7 18l251 393q14 23 13.5 38t-13.5 34l-227 350q-12 20 -5 33.5t30 13.5h151q25 0 35 -4t25 -27l125 -219q10 -14 14 -14q6 0 16 16l123 217q14 23 25.5 27t34.5 4h151q35 0 35 -22q0 -4 -2 -12.5t-6 -12.5l-228 -348q-16 -25 -15 -38t13 -36l256 -401 q4 -6 4 -12t-5 -12q-9 -11 -31 -11h-146q-23 0 -37 8t-30 35l-142 242q-10 16 -18 16t-19 -18l-143 -250q-14 -23 -28.5 -28t-34.5 -5h-144q-18 0 -26.5 7.5t-8.5 17.5z" />
<glyph unicode="y" horiz-adv-x="907" d="M26 886q0 27 33 27h164q23 0 33 -11t16 -28l95 -382l59 -248q4 -16 12 -16.5t15 16.5l71 245l119 381q4 16 15.5 29.5t37.5 13.5h148q20 0 30 -14q6 -8 6 -18q0 -8 -3 -19l-385 -1192q-6 -16 -20.5 -29.5t-39.5 -13.5h-133q-23 0 -32 12.5t1 41.5l88 284q4 16 3 25.5 t-19 9.5h-23q-23 0 -34 10t-17 33l-237 825q-3 10 -3 18z" />
<glyph unicode="z" horiz-adv-x="874" d="M66 47v59q0 16 5 36t15 36l375 510q8 10 6 18.5t-16 8.5h-332q-35 0 -35 30v132q0 32 31 32h2h604q59 0 59 -47v-80q0 -16 -6 -35.5t-16 -33.5l-357 -490q-18 -29 17 -28h356q14 0 24.5 -8.5t10.5 -24.5v-129q0 -33 -33 -33h-655q-31 0 -43 13.5t-12 33.5z" />
<glyph unicode="{" horiz-adv-x="747" d="M84 512v92q0 23 12.5 33t34.5 20q61 27 100 73t39 122v244q0 164 89.5 242.5t256.5 74.5l25 -2q16 0 22.5 -9t6.5 -18v-127q0 -33 -27 -32h-29q-76 -2 -99 -35t-23 -105v-288q0 -72 -39 -131.5t-101 -96.5q-25 -16 0 -30q33 -16 59.5 -45t45 -63t28 -69.5t9.5 -66.5v-283 q0 -72 22.5 -104.5t97.5 -34.5h29q27 0 27 -33v-127q0 -8 -6.5 -17t-22.5 -9h-25q-168 -6 -256 72.5t-88 242.5l-2 270q0 76 -37.5 123t-97.5 70q-51 20 -51 47z" />
<glyph unicode="|" horiz-adv-x="481" d="M160 -205v1559q0 31 33 30h94q35 0 35 -28l-3 -1563q0 -29 -32 -29h-94q-33 0 -33 31z" />
<glyph unicode="}" horiz-adv-x="747" d="M80 -160q0 33 26 33h29q76 2 98.5 35t22.5 104v283q0 31 9 66.5t27.5 69.5t44 62.5t60.5 45.5q25 14 0 30q-61 37 -100 96.5t-39 131.5v288q0 72 -23.5 105t-99.5 35h-29q-27 0 -26 32v127q0 8 6 17.5t23 9.5h24q168 6 257 -72.5t89 -242.5v-244q0 -76 39 -122t100 -73 q23 -10 35.5 -20t12.5 -33v-92q0 -27 -52 -47q-59 -23 -97 -70t-38 -123l-2 -268q0 -166 -88 -244.5t-256 -72.5h-24q-16 0 -22.5 9t-6.5 17v127z" />
<glyph unicode="~" d="M34 587.5q-3 12.5 7 35.5q4 8 8 14t10 16q53 66 118 93.5t130 27.5q55 0 106.5 -18.5t100.5 -41t97 -42t98 -19.5q37 0 65.5 24.5t50.5 47.5q35 35 66 6l65 -55q41 -33 19 -68q-47 -68 -112.5 -108.5t-147.5 -40.5q-59 0 -115.5 19.5t-108 43t-97.5 43t-87 19.5 q-35 0 -64.5 -17.5t-66.5 -62.5q-10 -14 -23.5 -17.5t-29.5 11.5l-76 67q-10 10 -13 22.5z" />
<glyph unicode="&#xa1;" horiz-adv-x="569" d="M170 776q0 53 39 92t96 39t97 -39t40 -92t-40 -92t-95 -39q-57 0 -97 38t-40 93zM190 -344l39 858q0 4 3.5 13.5t17.5 9.5h106q14 0 18.5 -9.5t4.5 -11.5l43 -858q0 -31 -29 -31h-174q-29 0 -29 29z" />
<glyph unicode="&#xa2;" d="M143 338v231q0 135 78 226.5t207 117.5q18 4 25.5 9.5t7.5 21.5v94q0 27 28 27h86q29 0 29 -27v-92q0 -16 6 -21t23 -10q78 -16 140.5 -58t103.5 -120q4 -10 5 -25.5t-20 -27.5l-117 -70q-27 -16 -39 -3.5t-22 30.5q-29 51 -70 70.5t-84 19.5q-70 0 -115.5 -45 t-45.5 -111v-239q0 -66 46 -109t113 -43q45 0 87 20.5t67 65.5q10 18 23.5 30.5t39.5 -3.5l115 -64q23 -12 24 -25t-10 -30q-41 -78 -101 -120t-134 -58q-16 -4 -25.5 -11t-9.5 -28v-84q0 -27 -29 -27h-86q-29 0 -28 27v88q0 16 -8.5 22.5t-24.5 10.5q-133 27 -209 116 t-76 224z" />
<glyph unicode="&#xa3;" d="M76 31v123q0 16 10 27.5t27 15.5q55 16 72.5 63t17.5 92v156q0 16 -4 25.5t-25 9.5l-63 2q-33 0 -33 30v123q0 31 33 31h67q27 0 27 33v153q0 82 27.5 150t77.5 117t120 75.5t154 26.5q111 0 202 -42t150 -157q6 -10 3 -24t-17 -25l-103 -65q-23 -14 -33 -7t-20 23 q-29 47 -68 73.5t-98 26.5q-72 0 -122 -44t-50 -111v-168q0 -35 35 -35h194q33 0 33 -31v-123q0 -31 -33 -30h-188q-23 0 -30 -8.5t-7 -26.5v-143q0 -29 -7 -73t-30 -75q-14 -23 15 -22h456q14 0 24.5 -7.5t10.5 -23.5v-133q0 -33 -33 -33h-759q-33 0 -33 31z" />
<glyph unicode="&#xa4;" horiz-adv-x="1007" d="M93 206.5q-1 16.5 16 33.5l90 94q-23 41 -36 88t-13 88q0 45 11 88t38 84l-82 90q-16 16 -18.5 25.5t20.5 31.5l67 66q27 27 45 10l88 -96q41 29 87.5 39t93.5 10t92 -11t86 -38l90 88q12 12 29.5 14t33.5 -14l62 -63q35 -35 2 -62l-90 -86q29 -41 40 -86t11 -94 q0 -47 -10 -94t-39 -90l88 -82q12 -12 15 -27.5t-13 -32.5l-66 -69q-27 -27 -45 -11l-106 99q-41 -23 -87 -36t-89 -13q-47 0 -94.5 13t-87.5 40l-84 -86q-31 -31 -60 -2l-69 65q-15 10 -16 26.5zM326 506q0 -74 52 -126t126 -52t125 52t51 126t-51 125t-125 51t-126 -51 t-52 -125z" />
<glyph unicode="&#xa5;" d="M59 1237q0 27 33 27h160q23 0 34 -5.5t21 -27.5l182 -469q8 -20 17.5 -22.5t19.5 20.5l183 467q8 20 19 28.5t38 8.5h152q20 0 27 -7.5t7 -17.5q0 -12 -6 -20l-184 -424q-4 -10 -4 -19.5t16 -9.5h115q31 0 31 -31v-86q0 -31 -31 -31h-758q-33 0 -33 31v86q0 31 33 31h102 q29 0 15 31l-185 420q-4 12 -4 20zM98 414v88q0 29 33 28h758q14 0 22.5 -9t8.5 -19v-88q0 -31 -31 -31h-240q-23 0 -28 -10.5t-5 -26.5v-317q0 -29 -32 -29h-158q-33 0 -33 29v315q0 16 -4 27.5t-29 11.5h-229q-33 0 -33 31z" />
<glyph unicode="&#xa6;" horiz-adv-x="481" d="M158 -205l2 701q0 31 33 30h94q35 0 35 -28l-3 -705q0 -29 -32 -29h-97q-32 0 -32 31zM158 635l2 721q0 31 33 30h94q35 0 35 -28l-3 -725q0 -29 -32 -29h-97q-32 0 -32 31z" />
<glyph unicode="&#xa7;" horiz-adv-x="962" d="M129 29q0 18 21 32q18 16 36.5 32t38.5 32q14 12 27 12q18 0 37 -22q33 -39 89 -64.5t116 -25.5q57 0 104 19t47 67q0 41 -39 66.5t-108 49.5q-61 20 -121 48t-105 64t-72.5 81t-27.5 100q0 150 158 225l20 9q10 4 17 4q14 0 28 -21l47 -90q4 -6 4 -18q0 -18 -20 -29 q-18 -12 -33.5 -29.5t-15.5 -35.5q0 -35 37 -62t110 -55q68 -25 128.5 -51.5t107.5 -61.5t74.5 -81t27.5 -107q0 -63 -28.5 -112.5t-80 -82.5t-119 -49t-145.5 -16q-49 0 -101 9t-99 27.5t-87 48t-67 70.5q-6 7 -6 17zM166 1083q0 117 93 190t247 73q43 0 89 -8.5t90 -27 t82 -48t67 -70.5q4 -4 4 -8v-8q0 -18 -19 -33l-74 -64q-14 -14 -26 -14q-14 0 -35 25q-33 35 -82 60.5t-98 25.5q-55 0 -92 -20.5t-37 -55.5q0 -43 33.5 -68.5t111.5 -52.5q66 -23 124 -48.5t101 -59t68 -76.5t25 -101q0 -164 -154 -235q-14 -4 -31.5 -10.5t-27.5 16.5 l-50 102q-4 4 -4 13q0 20 21 28q18 12 28.5 27.5t10.5 40.5q0 53 -50.5 80.5t-123.5 54.5q-63 23 -116.5 46.5t-92.5 54t-60.5 72.5t-21.5 99z" />
<glyph unicode="&#xa8;" horiz-adv-x="962" d="M174 1135q0 51 35 85.5t88 34.5t88 -34.5t37 -83.5q0 -51 -36 -86t-89 -35t-88 34t-35 85zM532 1135q0 51 36 85.5t89 34.5q51 0 87 -34.5t36 -83.5q0 -51 -34.5 -86t-86.5 -35q-53 0 -90 34t-37 85z" />
<glyph unicode="&#xa9;" horiz-adv-x="1447" d="M125 494v276q0 113 44 205t124 155.5t190.5 98.5t243.5 35q131 0 242.5 -33t192.5 -95.5t127 -154.5t46 -211v-276q0 -119 -46 -211.5t-127 -154.5t-192.5 -95t-242.5 -33q-133 0 -243.5 34t-190.5 98.5t-124 155.5t-44 206zM244 487q0 -76 29.5 -144.5t89 -120.5 t149.5 -84t213 -32q121 0 213 31t154.5 83t94.5 122t32 145v287q0 80 -32 149.5t-94.5 122t-154.5 82t-213 29.5q-123 0 -213 -30.5t-149.5 -84t-89 -123t-29.5 -145.5v-287zM492 473v285q0 102 68.5 161.5t174.5 59.5q78 0 134.5 -25.5t91.5 -95.5q4 -6 3 -15t-12 -14 l-75 -41q-20 -12 -31 11q-20 35 -49 48t-60 13q-47 0 -78.5 -28.5t-31.5 -71.5v-285q0 -43 30.5 -71.5t79.5 -28.5q66 0 109 59q6 8 12 13.5t19 -3.5l77 -43q16 -10 7 -28q-45 -70 -102.5 -94.5t-123.5 -24.5q-109 0 -176 57.5t-67 161.5z" />
<glyph unicode="&#xaa;" horiz-adv-x="643" d="M49 700q0 92 64.5 150.5t177.5 58.5q23 0 51.5 -7t50.5 -23q4 -4 8 -5q4 0 5 9v12q0 33 -20.5 52.5t-78.5 19.5q-31 0 -75 -8.5t-78 -20.5q-4 -2 -11 -2q-14 0 -20 18l-21 66q-2 4 -2 12q0 18 21 29q47 23 101 32t108 9q131 0 189.5 -60.5t58.5 -164.5v-349 q0 -31 -29 -30h-107q-27 0 -26 24v6q0 8 -6 9q-4 0 -7 -2q-23 -18 -58.5 -30.5t-70.5 -12.5q-111 0 -168 55t-57 153zM221 705q0 -33 23.5 -56.5t60.5 -23.5q41 0 64.5 24.5t23.5 55.5q0 35 -24.5 57t-63.5 22q-37 0 -60.5 -22t-23.5 -57z" />
<glyph unicode="&#xab;" horiz-adv-x="1122" d="M125 415.5q2 22.5 20 45.5l238 291q10 14 25.5 24t44.5 10h135q29 0 36 -15t-10 -36l-245 -301q-12 -16 -12.5 -23.5t10.5 -17.5l243 -295q16 -20 7 -38.5t-29 -18.5h-133q-27 0 -42.5 9t-33.5 32l-234 283q-22 28 -20 50.5zM532.5 415.5q2.5 22.5 20.5 45.5l238 291 q10 14 25 24t46 10h133q29 0 36 -15t-9 -36l-246 -301q-12 -16 -11 -23.5t9 -17.5l244 -295q16 -20 8 -38.5t-31 -18.5h-131q-29 0 -44 9t-34 32l-233 283q-23 28 -20.5 50.5z" />
<glyph unicode="&#xac;" d="M80 479v101q0 29 31 28h794q33 0 33 -28v-428q0 -33 -29 -33h-92q-29 0 -29 31v282q0 18 -22 19h-653q-33 -1 -33 28z" />
<glyph unicode="&#xad;" horiz-adv-x="663" d="M90 420v117q0 29 31 28h409q31 0 31 -26v-117q0 -31 -29 -31h-409q-33 0 -33 29z" />
<glyph unicode="&#xae;" horiz-adv-x="837" d="M86 901v148q0 127 92 199.5t238 72.5q72 0 133 -17.5t105 -52t70 -86t26 -116.5v-148q0 -66 -26 -117t-70 -85.5t-105.5 -52t-132.5 -17.5q-145 0 -237.5 71.5t-92.5 200.5zM162 897q0 -39 15.5 -75t46 -63.5t78.5 -44t114 -16.5q63 0 111 16.5t81 44t49.5 63.5t16.5 75 v154q0 84 -64.5 142t-193.5 58q-131 0 -192.5 -60.5t-61.5 -139.5v-154zM303 799v350q0 18 19 18h110q61 0 94 -30.5t33 -77.5q0 -31 -14.5 -58.5t-34.5 -42.5q-12 -8 -13 -12t3 -12l63 -125q4 -8 2 -17.5t-16 -9.5h-39q-10 0 -15.5 2t-9.5 13l-61 129q-2 10 -14 10h-27 v-137q0 -16 -14 -17h-52q-14 1 -14 17zM381 997h53q16 0 31.5 14.5t15.5 37.5q0 47 -47 47h-53v-99z" />
<glyph unicode="&#xaf;" horiz-adv-x="946" d="M219 1106v104q0 23 7 29t30 6h434q23 0 30 -6t7 -27v-106q0 -18 -6 -22.5t-29 -4.5h-434q-23 0 -31 3.5t-8 23.5z" />
<glyph unicode="&#xb0;" horiz-adv-x="657" d="M66 1065q0 49 19 93t54 77t81 52.5t102 19.5q59 0 108 -19.5t84 -52.5t54.5 -77t19.5 -93t-21.5 -93t-57.5 -77t-84 -52.5t-103 -19.5t-101.5 19.5t-81.5 52.5t-54 77t-19 93zM207 1065q0 -47 33.5 -82t81.5 -35q47 0 83.5 35t36.5 82t-33.5 82t-86.5 35q-47 0 -81 -34 t-34 -83z" />
<glyph unicode="&#xb1;" d="M80 49v64q0 45 49 45h760q49 0 49 -45v-62q0 -51 -49 -51h-760q-49 0 -49 49zM80 641v76q0 41 41 41h270q25 0 25 22v273q0 39 41 39h92q43 0 43 -39v-267q0 -16 4 -22t20 -6h281q41 0 41 -41v-74q0 -43 -41 -43h-281q-16 0 -20 -5t-4 -17v-271q0 -39 -43 -39h-90 q-43 0 -43 39v273q0 20 -29 20h-266q-41 0 -41 41z" />
<glyph unicode="&#xb2;" horiz-adv-x="638" d="M35 705v61q0 16 2 27.5t18 31.5l260 301q31 35 48.5 63t17.5 48q0 35 -24.5 57.5t-67.5 22.5q-33 0 -58.5 -16.5t-42.5 -34.5q-27 -35 -61 -11q-2 2 -10 8.5t-18.5 13.5l-19.5 13t-11 8q-16 14 -16.5 23.5t9.5 26.5q47 61 111 86.5t131 25.5q51 0 97 -14t80 -41t53.5 -66 t19.5 -90q0 -53 -30.5 -102t-69.5 -94q-14 -16 -39 -46t-52.5 -62t-54 -61.5t-41.5 -47.5q-8 -10 -5 -14.5t9 -4.5h256q16 0 24.5 -10t8.5 -21v-81q0 -16 -9 -23.5t-22 -7.5h-458q-16 0 -25.5 6.5t-9.5 24.5z" />
<glyph unicode="&#xb3;" horiz-adv-x="638" d="M43 813q0 16 16 25q18 10 38 19t38 20q14 6 25 6q16 0 24 -17q39 -59 101 -59q43 0 71.5 23.5t28.5 58.5v49q0 33 -25.5 58.5t-66.5 25.5h-82q-35 0 -35 31v73q0 33 33 33h84q41 0 66.5 23.5t25.5 54.5q0 35 -26.5 57.5t-69.5 22.5q-29 0 -55.5 -13.5t-43.5 -35.5 q-14 -23 -36 -23q-14 0 -21 4l-70 39q-14 8 -14 27q0 14 8 31q37 55 99.5 83.5t134.5 28.5q117 0 188.5 -56t71.5 -159q0 -41 -20.5 -81t-61.5 -64q-4 -4 -4 -6t4 -7q41 -23 62.5 -59.5t21.5 -75.5v-53q0 -109 -71.5 -169t-190.5 -60q-86 4 -145.5 30.5t-98.5 94.5 q-4 12 -4 20z" />
<glyph unicode="&#xb4;" horiz-adv-x="931" d="M360 1077l179 293q8 14 22 18.5t27 -2.5l123 -67q23 -12 18.5 -28.5t-12.5 -24.5l-236 -262q-10 -10 -23.5 -11.5t-27.5 6.5l-57 35q-27 14 -13 43z" />
<glyph unicode="&#xb6;" horiz-adv-x="1056" d="M82 954q0 72 26.5 135.5t73.5 111.5t111.5 77t140.5 29h162q31 0 31 -29v-641q0 -29 -31 -29h-162q-78 0 -142.5 27t-111.5 74t-72.5 109t-25.5 136zM471 -68q-2 14 3 25.5t22 13.5q68 8 111.5 25.5t69 44.5t35 63.5t9.5 83.5v1090q0 29 31 29h151q31 0 31 -29v-1110 q0 -193 -110.5 -283t-303.5 -102q-12 0 -20 5t-13 24z" />
<glyph unicode="&#xb7;" horiz-adv-x="468" d="M98 483q0 53 41 92t97 39q53 0 94 -38.5t41 -90.5q0 -55 -40 -95t-95 -40q-57 0 -97.5 40t-40.5 93z" />
<glyph unicode="&#xb8;" horiz-adv-x="843" d="M270 -350q0 6 6 16l39 47q12 14 21 15q6 0 26 -11q16 -10 39 -17t45 -7q45 0 65.5 17.5t20.5 41.5q0 27 -15 43.5t-54 16.5h-62q-39 0 -56 20.5t-9 54.5l37 144q2 8 8 18t20 10h66q20 0 20 -18q0 -4 -4 -16l-22 -97v-2q0 -6 14 -6h14q72 0 121 -44t49 -122 q0 -31 -12 -61.5t-38.5 -55t-65.5 -40t-92 -15.5q-100 0 -168 49q-13 9 -13 19z" />
<glyph unicode="&#xb9;" horiz-adv-x="569" d="M96 1231v76q0 16 4 27.5t23 21.5l141 82q10 4 18.5 7t20.5 3h72q37 0 37 -35v-706q0 -33 -37 -33h-103q-35 0 -34 31v532q0 14 -15 8l-73 -37q-23 -10 -38.5 -5t-15.5 28z" />
<glyph unicode="&#xba;" horiz-adv-x="651" d="M59 709v153q0 102 73 166t194 64q113 0 189.5 -58.5t76.5 -171.5v-149q0 -113 -75 -172.5t-191 -59.5q-117 0 -192 62t-75 166zM231 715q0 -37 27 -60.5t68 -23.5t65.5 22.5t24.5 61.5v145q0 35 -24.5 57.5t-67.5 22.5q-41 0 -67 -23.5t-26 -58.5v-143z" />
<glyph unicode="&#xbb;" horiz-adv-x="1122" d="M118 55.5q-9 16.5 7 36.5l231 281q6 8 12.5 19t4.5 20q2 6 -2 16t-11 18l-235 285q-16 20 -7 36.5t34 16.5h133q29 0 43 -9t30 -30l205 -247q14 -16 24.5 -46t6.5 -44q4 -14 -5 -37t-20 -37l-211 -256q-16 -18 -30.5 -28.5t-42.5 -10.5h-133q-25 0 -34 16.5zM526.5 55.5 q-8.5 16.5 8.5 36.5l229 281q6 8 12 19t4 20q2 6 -2 16t-10 18l-233 285q-16 20 -8 36.5t32 16.5h133q29 0 43.5 -9t30.5 -30l207 -247q12 -16 23.5 -46t4.5 -44q4 -14 -5 -37t-19 -37l-211 -256q-16 -18 -30.5 -28.5t-43.5 -10.5h-133q-24 0 -32.5 16.5z" />
<glyph unicode="&#xbc;" horiz-adv-x="1556" d="M172 1047v75q0 16 4 27.5t23 21.5l141 82q10 4 18.5 7.5t20.5 3.5h72q37 0 36 -35v-707q0 -33 -36 -33h-103q-35 0 -35 31v533q0 14 -14 8l-74 -37q-23 -10 -38 -5t-15 28zM361.5 -50q-3.5 11 0.5 25l582 1328q10 23 37 22h74q25 0 30 -11t-2 -28l-581 -1329 q-8 -18 -31 -18h-84q-22 0 -25.5 11zM782 190v56q0 18 2 31.5t13 31.5l241 449q8 12 16.5 15t22.5 3h117q10 0 17.5 -5t-1.5 -21l-227 -431q-10 -14 8 -14h113q16 0 16 17v131q0 16 7.5 19t15.5 3h114q27 0 27 -22v-131q0 -8 2 -12.5t12 -4.5h68q25 0 25 -20v-97 q0 -23 -21 -22h-72q-14 0 -14 -16v-125q0 -25 -27 -25h-114q-23 0 -23 25v122q0 12 -5 15.5t-15 3.5h-289q-29 -1 -29 24z" />
<glyph unicode="&#xbd;" horiz-adv-x="1556" d="M166 1047v75q0 16 4 27.5t23 21.5l141 82q10 4 18 7.5t21 3.5h71q37 0 37 -35v-707q0 -33 -37 -33h-102q-35 0 -35 31v533q0 14 -14 8l-74 -37q-23 -10 -38 -5t-15 28zM331 -50q-3 11 1 25l581 1328q10 23 37 22h74q25 0 30 -11t-1 -28l-582 -1329q-8 -18 -31 -18h-84 q-22 0 -25 11zM866 29v61q0 16 2 27.5t19 32.5l260 301q29 35 47 62.5t18 49.5q0 35 -24.5 58.5t-69.5 23.5q-35 0 -60.5 -17.5t-41.5 -35.5q-29 -29 -58 -10l-61 43q-16 14 -16 23t10 24q47 59 109.5 85.5t127.5 26.5q104 0 178 -54t74 -155q0 -53 -30.5 -102t-69.5 -94 l-186 -219q-8 -10 -5 -15.5t9 -5.5h260q14 0 21 -9t7 -19v-80q0 -31 -28 -31h-461q-31 0 -31 29z" />
<glyph unicode="&#xbe;" horiz-adv-x="1556" d="M96 629q0 16 17 24q18 10 37.5 19.5t37.5 19.5q14 6 25 6q16 0 25 -16q39 -59 100 -59q43 0 71.5 23.5t28.5 58.5v49q0 33 -25.5 58.5t-66.5 25.5h-82q-35 0 -35 30v74q0 33 33 33h84q41 0 66.5 23.5t25.5 54.5q0 35 -26.5 57.5t-69.5 22.5q-29 0 -55.5 -13.5 t-42.5 -36.5q-14 -23 -37 -22q-14 0 -21 4l-69 39q-14 8 -15 26q0 14 9 31q37 55 99 84t134 29q117 0 188.5 -56.5t71.5 -158.5q0 -41 -20.5 -81t-61.5 -65q-4 -4 -4 -6t4 -6q41 -23 62.5 -59.5t21.5 -75.5v-53q0 -109 -71.5 -169.5t-190.5 -60.5q-86 4 -145.5 31t-98.5 94 q-4 13 -4 21zM404.5 -50q-3.5 11 1.5 25l581 1328q10 23 37 22h74q25 0 30 -11t-2 -28l-581 -1329q-8 -18 -31 -18h-84q-22 0 -25.5 11zM819 190v56q0 18 2 31.5t13 31.5l241 449q8 12 16.5 15t22.5 3h117q10 0 17 -5t-1 -21l-227 -431q-10 -14 8 -14h113q16 0 16 17v131 q0 16 7 19t16 3h114q27 0 27 -22v-131q0 -8 2 -12.5t12 -4.5h68q25 0 24 -20v-97q0 -23 -20 -22h-72q-14 0 -14 -16v-125q0 -25 -27 -25h-114q-23 0 -23 25v122q0 12 -5 15.5t-15 3.5h-289q-29 -1 -29 24z" />
<glyph unicode="&#xbf;" horiz-adv-x="1034" d="M172 -53q0 51 17.5 99t47 90t66.5 75t76 57q72 45 123 92.5t51 120.5v39q0 20 25 21h163q23 0 32 -8.5t9 -32.5v-54q0 -80 -48 -157.5t-132 -132.5q-76 -49 -132 -95.5t-60 -105.5q-4 -68 39 -111t114 -43q39 0 66.5 8.5t47 23.5t36 35.5t32.5 45.5q16 23 48 4l108 -68 q31 -18 10 -55q-63 -106 -150 -147t-202 -41q-86 0 -156.5 22.5t-122 65.5t-80 106.5t-28.5 145.5zM535 776q0 53 38.5 92t98.5 39q55 0 96 -39t41 -92t-41 -92t-96 -39t-95 37t-40 94h-2z" />
<glyph unicode="&#xc0;" horiz-adv-x="987" d="M33 41l299 1194q10 29 43 29h233q14 0 24.5 -3.5t14.5 -23.5l307 -1194q4 -10 1 -26.5t-31 -16.5h-166q-33 0 -41 27l-47 204q-4 16 -9.5 22.5t-17.5 6.5h-303q-16 0 -20.5 -8t-8.5 -19q-4 -16 -10 -43.5t-13 -59.5t-13.5 -60.5t-10.5 -42.5t-15 -20.5t-24 -6.5h-157 q-29 0 -34 12.5t-1 28.5zM171 1495q-9 14 7 33l80 96q16 20 36.5 17t47.5 -23l248 -188q27 -20 6 -46l-41 -53q-10 -12 -20.5 -18t-28.5 4l-316 160q-10 4 -19 18zM371 455q2 -4 14 -4h213q20 0 12 20l-65 287l-49 235q-2 8 -7.5 9.5t-7.5 -9.5l-47 -231l-63 -293 q-2 -10 0 -14z" />
<glyph unicode="&#xc1;" horiz-adv-x="987" d="M33 41l299 1194q10 29 43 29h233q14 0 24.5 -3.5t14.5 -23.5l307 -1194q4 -10 1 -26.5t-31 -16.5h-166q-33 0 -41 27l-47 204q-4 16 -9.5 22.5t-17.5 6.5h-303q-16 0 -20.5 -8t-8.5 -19q-4 -16 -10 -43.5t-13 -59.5t-13.5 -60.5t-10.5 -42.5t-15 -20.5t-24 -6.5h-157 q-29 0 -34 12.5t-1 28.5zM371 455q2 -4 14 -4h213q20 0 12 20l-65 287l-49 235q-2 8 -7.5 9.5t-7.5 -9.5l-47 -231l-63 -293q-2 -10 0 -14zM373 1384q-20 25 6 46l248 188q27 20 47 23.5t37 -17.5l80 -96q16 -18 6.5 -32.5t-19.5 -18.5l-315 -160q-18 -10 -28.5 -4t-20.5 18 z" />
<glyph unicode="&#xc2;" horiz-adv-x="987" d="M33 41l299 1194q10 29 43 29h233q14 0 24.5 -3.5t14.5 -23.5l307 -1194q4 -10 1 -26.5t-31 -16.5h-166q-33 0 -41 27l-47 204q-4 16 -9.5 22.5t-17.5 6.5h-303q-16 0 -20.5 -8t-8.5 -19q-4 -16 -10 -43.5t-13 -59.5t-13.5 -60.5t-10.5 -42.5t-15 -20.5t-24 -6.5h-157 q-29 0 -34 12.5t-1 28.5zM161 1366q3 10 11 20l205 234q16 20 43 20h137q16 0 25.5 -5t19.5 -15l203 -234q8 -10 11 -20t-13 -16l-66 -31q-16 -8 -25.5 -7t-19.5 11l-192 150q-14 12 -29 2l-190 -154q-10 -10 -18.5 -11t-24.5 7l-64 33q-16 6 -13 16zM371 455q2 -4 14 -4 h213q20 0 12 20l-65 287l-49 235q-2 8 -7.5 9.5t-7.5 -9.5l-47 -231l-63 -293q-2 -10 0 -14z" />
<glyph unicode="&#xc3;" horiz-adv-x="987" d="M33 41l299 1194q10 29 43 29h233q14 0 24.5 -3.5t14.5 -23.5l307 -1194q4 -10 1 -26.5t-31 -16.5h-166q-33 0 -41 27l-47 204q-4 16 -9.5 22.5t-17.5 6.5h-303q-16 0 -20.5 -8t-8.5 -19q-4 -16 -10 -43.5t-13 -59.5t-13.5 -60.5t-10.5 -42.5t-15 -20.5t-24 -6.5h-157 q-29 0 -34 12.5t-1 28.5zM156 1438q29 49 81 83.5t111 34.5q33 0 65.5 -10t65.5 -23.5t62.5 -23.5t54.5 -10q23 0 43 19.5t35 35.5q10 14 17 15.5t20 -7.5l69 -45q14 -10 16.5 -18t-8.5 -31q-33 -59 -85 -92t-101 -33q-37 0 -68.5 10.5t-61.5 21.5t-59.5 21.5t-60.5 10.5 q-16 0 -42.5 -11.5t-51.5 -39.5q-10 -12 -18.5 -12.5t-22.5 12.5l-57 55q-16 17 -4 37zM371 455q2 -4 14 -4h213q20 0 12 20l-65 287l-49 235q-2 8 -7.5 9.5t-7.5 -9.5l-47 -231l-63 -293q-2 -10 0 -14z" />
<glyph unicode="&#xc4;" horiz-adv-x="987" d="M33 41l299 1194q10 29 43 29h233q14 0 24.5 -3.5t14.5 -23.5l307 -1194q4 -10 1 -26.5t-31 -16.5h-166q-33 0 -41 27l-47 204q-4 16 -9.5 22.5t-17.5 6.5h-303q-16 0 -20.5 -8t-8.5 -19q-4 -16 -10 -43.5t-13 -59.5t-13.5 -60.5t-10.5 -42.5t-15 -20.5t-24 -6.5h-157 q-29 0 -34 12.5t-1 28.5zM184 1452q0 51 35 86t88 35t88 -35t35 -86t-35 -85t-88 -34t-88 34t-35 85zM371 455q2 -4 14 -4h213q20 0 12 20l-65 287l-49 235q-2 8 -7.5 9.5t-7.5 -9.5l-47 -231l-63 -293q-2 -10 0 -14zM543 1452q0 51 35.5 86t89.5 35q51 0 87 -35t36 -86 t-35 -85t-88 -34t-89 34t-36 85z" />
<glyph unicode="&#xc5;" horiz-adv-x="987" d="M33 41l299 1194q10 29 43 29h233q14 0 24.5 -3.5t14.5 -23.5l307 -1194q4 -10 1 -26.5t-31 -16.5h-166q-33 0 -41 27l-47 204q-4 16 -9.5 22.5t-17.5 6.5h-303q-16 0 -20.5 -8t-8.5 -19q-4 -16 -10 -43.5t-13 -59.5t-13.5 -60.5t-10.5 -42.5t-15 -20.5t-24 -6.5h-157 q-29 0 -34 12.5t-1 28.5zM309 1503q0 74 50.5 127t127.5 53q76 0 130.5 -52t54.5 -128q0 -37 -14.5 -69.5t-39 -56t-58.5 -38t-73 -14.5q-37 0 -69.5 14.5t-57 39t-38 56t-13.5 68.5zM371 455q2 -4 14 -4h213q20 0 12 20l-65 287l-49 235q-2 8 -7.5 9.5t-7.5 -9.5l-47 -231 l-63 -293q-2 -10 0 -14zM414 1503q0 -33 21.5 -54.5t51.5 -21.5q33 0 55.5 23t22.5 53q0 31 -23.5 55.5t-54.5 24.5t-52 -22.5t-21 -57.5z" />
<glyph unicode="&#xc6;" horiz-adv-x="1554" d="M23.5 14.5q-3.5 14.5 1.5 30.5q18 49 54 142.5t81 209t94 242.5t93 242.5t80 209t54 142.5q6 12 18.5 21.5t32.5 9.5h912q33 0 33 -31v-135q0 -37 -31 -37h-465q-29 0 -29 -27v-254q0 -18 5.5 -25t23.5 -7h381q18 0 24.5 -7.5t6.5 -25.5v-135q0 -16 -6.5 -26.5 t-24.5 -10.5h-383q-18 0 -22.5 -7.5t-4.5 -23.5v-274q0 -10 3 -20.5t26 -10.5h475q33 0 33 -35v-139q0 -33 -33 -33h-700q-37 0 -37 31v221q0 12 -3 23.5t-26 11.5h-319q-16 0 -22.5 -8.5t-10.5 -18.5l-86 -231q-6 -16 -18.5 -22.5t-22.5 -6.5h-158q-26 0 -29.5 14.5z M422 502q-8 -18 12 -19h256q12 0 20.5 5.5t8.5 21.5v532q0 18 -21 19h-63q-18 0 -23 -17z" />
<glyph unicode="&#xc7;" horiz-adv-x="966" d="M121 352v568q0 82 29.5 149.5t83 114.5t126 73.5t158.5 26.5q106 0 203.5 -38t175.5 -148q10 -12 9 -26.5t-19 -27.5l-111 -83q-16 -10 -31.5 -4t-23.5 20q-70 102 -195 102q-86 0 -130 -50t-44 -118v-559q0 -66 45 -111.5t131 -45.5q57 0 106.5 27.5t84.5 68.5l21 21 q11 11 32 -1l123 -75q14 -8 19.5 -21.5t-3.5 -28.5q-66 -98 -154.5 -143t-193.5 -53l-12 -62v-2q0 -6 14 -6h15q72 0 121 -44t49 -122q0 -31 -12.5 -61.5t-39 -55t-65.5 -40t-92 -15.5q-100 0 -168 49q-12 8 -13 19q0 6 7 16l39 47q12 14 20 15q6 0 27 -11q16 -10 38.5 -17 t45.5 -7q45 0 65.5 17.5t20.5 41.5q0 27 -15.5 43.5t-54.5 16.5h-61q-39 0 -56.5 20.5t-9.5 54.5l27 105q-152 18 -242 113t-90 247z" />
<glyph unicode="&#xc8;" horiz-adv-x="958" d="M125 35v1194q0 35 37 35h682q14 0 24.5 -7.5t10.5 -25.5v-133q0 -37 -33 -37h-457q-20 0 -26.5 -6t-6.5 -21v-246q0 -35 33 -34h377q33 0 33 -37v-131q0 -35 -33 -35h-379q-18 0 -24.5 -7t-6.5 -24v-282q0 -18 8.5 -24.5t28.5 -6.5h463q33 0 33 -35v-135q0 -37 -33 -37 h-694q-37 0 -37 35zM150.5 1495q-9.5 14 7.5 33l80 96q16 20 36.5 17t47.5 -23l247 -188q27 -20 6 -46l-40 -53q-10 -12 -20.5 -18t-29.5 4l-315 160q-10 4 -19.5 18z" />
<glyph unicode="&#xc9;" horiz-adv-x="958" d="M125 35v1194q0 35 37 35h682q14 0 24.5 -7.5t10.5 -25.5v-133q0 -37 -33 -37h-457q-20 0 -26.5 -6t-6.5 -21v-246q0 -35 33 -34h377q33 0 33 -37v-131q0 -35 -33 -35h-379q-18 0 -24.5 -7t-6.5 -24v-282q0 -18 8.5 -24.5t28.5 -6.5h463q33 0 33 -35v-135q0 -37 -33 -37 h-694q-37 0 -37 35zM340 1384q-20 25 6 46l248 188q27 20 47.5 23.5t36.5 -17.5l80 -96q16 -18 7 -32.5t-20 -18.5l-315 -160q-18 -10 -28.5 -4t-20.5 18z" />
<glyph unicode="&#xca;" horiz-adv-x="958" d="M125 35v1194q0 35 37 35h682q14 0 24.5 -7.5t10.5 -25.5v-133q0 -37 -33 -37h-457q-20 0 -26.5 -6t-6.5 -21v-246q0 -35 33 -34h377q33 0 33 -37v-131q0 -35 -33 -35h-379q-18 0 -24.5 -7t-6.5 -24v-282q0 -18 8.5 -24.5t28.5 -6.5h463q33 0 33 -35v-135q0 -37 -33 -37 h-694q-37 0 -37 35zM167 1366q3 10 11 20l205 234q16 20 43 20h137q16 0 25.5 -5t19.5 -15l203 -234q8 -10 11 -20t-13 -16l-66 -31q-16 -8 -25 -7t-20 11l-192 150q-14 12 -29 2l-190 -154q-10 -10 -18.5 -11t-24.5 7l-64 33q-16 6 -13 16z" />
<glyph unicode="&#xcb;" horiz-adv-x="958" d="M125 35v1194q0 35 37 35h682q14 0 24.5 -7.5t10.5 -25.5v-133q0 -37 -33 -37h-457q-20 0 -26.5 -6t-6.5 -21v-246q0 -35 33 -34h377q33 0 33 -37v-131q0 -35 -33 -35h-379q-18 0 -24.5 -7t-6.5 -24v-282q0 -18 8.5 -24.5t28.5 -6.5h463q33 0 33 -35v-135q0 -37 -33 -37 h-694q-37 0 -37 35zM168 1452q0 51 35 86t88 35t88 -35t35 -86t-35 -85t-88 -34t-88 34t-35 85zM526 1452q0 51 36 86t89 35q51 0 87 -35t36 -86t-34.5 -85t-88.5 -34q-53 0 -89 34t-36 85z" />
<glyph unicode="&#xcc;" horiz-adv-x="526" d="M-83 1495q-9 14 7 33l80 96q16 20 36.5 17t47.5 -23l248 -188q27 -20 6 -46l-41 -53q-10 -12 -20.5 -18t-28.5 4l-315 160q-11 4 -20 18zM143 31v1202q0 31 37 31h160q37 0 37 -31v-1200q0 -33 -37 -33h-160q-37 0 -37 31z" />
<glyph unicode="&#xcd;" horiz-adv-x="526" d="M143 31v1202q0 31 37 31h160q37 0 37 -31v-1200q0 -33 -37 -33h-160q-37 0 -37 31zM178 1384q-20 25 6 46l248 188q27 20 47.5 23.5t36.5 -17.5l80 -96q16 -18 7 -32.5t-19 -18.5l-316 -160q-18 -10 -28.5 -4t-20.5 18z" />
<glyph unicode="&#xce;" horiz-adv-x="526" d="M-64.5 1382.5q3.5 10.5 11.5 20.5l205 233q16 20 43 21h137q16 0 25.5 -5t19.5 -16l203 -233q8 -10 11 -20.5t-13 -16.5l-66 -31q-16 -8 -25.5 -7t-19.5 11l-193 150q-14 12 -28 2l-191 -154q-10 -10 -18 -11t-25 7l-63 33q-17 6 -13.5 16.5zM143 31v1202q0 31 37 31h160 q37 0 37 -31v-1200q0 -33 -37 -33h-160q-37 0 -37 31z" />
<glyph unicode="&#xcf;" horiz-adv-x="526" d="M-41 1452q0 51 35 86t88 35t88 -35t35 -86t-35 -85t-88 -34t-88 34t-35 85zM143 31v1202q0 31 37 31h160q37 0 37 -31v-1200q0 -33 -37 -33h-160q-37 0 -37 31zM317 1452q0 51 36 86t89 35q51 0 87 -35t36 -86t-34.5 -85t-88.5 -34q-53 0 -89 34t-36 85z" />
<glyph unicode="&#xd0;" horiz-adv-x="1081" d="M27 592v92q0 16 5 23.5t21 7.5h56q10 0 15 5t5 21v488q0 35 39 35h414q195 0 290 -100.5t95 -276.5v-504q0 -180 -95.5 -281.5t-283.5 -101.5h-420q-39 0 -39 35v502q0 12 -2 19t-18 7h-54q-18 0 -23 6.5t-5 22.5zM362 240q0 -33 33 -33h168q92 0 132 47t40 129v502 q0 94 -48 135t-132 41h-158q-23 0 -29 -9.5t-6 -25.5v-303q2 -8 19 -8h133q31 0 31 -31v-92q0 -29 -29 -29h-133q-16 0 -21 -10v-313z" />
<glyph unicode="&#xd1;" horiz-adv-x="1124" d="M125 29v1185q0 49 47 50h104q29 0 42.5 -8.5t23.5 -28.5l426 -748q4 -4 6 -3t2 5v750q0 33 35 33h147q37 0 37 -33v-1190q0 -25 -12 -33t-31 -8h-104q-25 0 -38 4t-26 27l-417 727q-4 10 -10.5 9t-6.5 -13v-725q0 -29 -39 -29h-147q-39 0 -39 29zM246 1430q29 49 81 83.5 t111 34.5q33 0 66 -10t65.5 -23.5t62.5 -23.5t54 -10q23 0 43.5 19.5t34.5 35.5q10 14 17 15t20 -7l69 -45q14 -10 16.5 -18t-7.5 -31q-33 -59 -85.5 -92t-101.5 -33q-37 0 -68.5 10.5t-61.5 21.5t-59.5 21.5t-60.5 10.5q-16 0 -42.5 -11.5t-51.5 -40.5q-10 -12 -18 -12 t-23 12l-57 56q-16 17 -4 37z" />
<glyph unicode="&#xd2;" horiz-adv-x="1083" d="M121 360v549q0 86 31.5 156t88 119t133.5 74.5t167 25.5q88 0 163.5 -25.5t133 -73.5t90.5 -118t33 -158v-549q0 -86 -32 -155.5t-87.5 -117.5t-132 -73.5t-166.5 -25.5t-167 25.5t-133.5 72.5t-89 116.5t-32.5 157.5zM224 1501.5q-9 14.5 7 32.5l80 96q16 20 37 17.5 t47 -23.5l248 -188q27 -20 6 -45l-41 -54q-10 -12 -20 -18t-29 4l-315 160q-11 4 -20 18.5zM352 362q0 -72 48.5 -119.5t140.5 -47.5q86 0 136 48t50 119v545q0 72 -46 121t-138 49t-141.5 -49t-49.5 -121v-545z" />
<glyph unicode="&#xd3;" horiz-adv-x="1083" d="M121 360v549q0 86 31.5 156t88 119t133.5 74.5t167 25.5q88 0 163.5 -25.5t133 -73.5t90.5 -118t33 -158v-549q0 -86 -32 -155.5t-87.5 -117.5t-132 -73.5t-166.5 -25.5t-167 25.5t-133.5 72.5t-89 116.5t-32.5 157.5zM352 362q0 -72 48.5 -119.5t140.5 -47.5 q86 0 136 48t50 119v545q0 72 -46 121t-138 49t-141.5 -49t-49.5 -121v-545zM455 1393q-20 25 6 45l248 188q27 20 47 23.5t37 -17.5l79 -96q16 -18 7 -32.5t-19 -18.5l-315 -160q-18 -10 -28.5 -4t-20.5 18z" />
<glyph unicode="&#xd4;" horiz-adv-x="1083" d="M121 360v549q0 86 31.5 156t88 119t133.5 74.5t167 25.5q88 0 163.5 -25.5t133 -73.5t90.5 -118t33 -158v-549q0 -86 -32 -155.5t-87.5 -117.5t-132 -73.5t-166.5 -25.5t-167 25.5t-133.5 72.5t-89 116.5t-32.5 157.5zM220 1366q3 10 11 20l205 234q16 20 43 20h137 q16 0 25.5 -5t20.5 -15l202 -234q8 -10 11.5 -20t-13.5 -16l-65 -31q-16 -8 -25.5 -7t-19.5 11l-193 150q-14 12 -29 2l-190 -154q-10 -10 -18.5 -11t-24.5 7l-64 33q-16 6 -13 16zM352 362q0 -72 48.5 -119.5t140.5 -47.5q86 0 136 48t50 119v545q0 72 -46 121t-138 49 t-141.5 -49t-49.5 -121v-545z" />
<glyph unicode="&#xd5;" horiz-adv-x="1083" d="M121 360v549q0 86 31.5 156t88 119t133.5 74.5t167 25.5q88 0 163.5 -25.5t133 -73.5t90.5 -118t33 -158v-549q0 -86 -32 -155.5t-87.5 -117.5t-132 -73.5t-166.5 -25.5t-167 25.5t-133.5 72.5t-89 116.5t-32.5 157.5zM221 1450q29 49 81 84t112 35q33 0 65.5 -10.5 t65.5 -23.5t62.5 -23.5t54.5 -10.5q23 0 43 19.5t34 35.5q10 14 17.5 15.5t19.5 -6.5l70 -45q14 -10 16 -18.5t-8 -31.5q-33 -59 -85 -91.5t-101 -32.5q-37 0 -69 10t-61.5 21.5t-59 21.5t-60.5 10q-16 0 -43 -11.5t-51 -39.5q-10 -12 -18.5 -12t-22.5 12l-58 55 q-16 17 -4 37zM352 362q0 -72 48.5 -119.5t140.5 -47.5q86 0 136 48t50 119v545q0 72 -46 121t-138 49t-141.5 -49t-49.5 -121v-545z" />
<glyph unicode="&#xd6;" horiz-adv-x="1083" d="M121 360v549q0 86 31.5 156t88 119t133.5 74.5t167 25.5q88 0 163.5 -25.5t133 -73.5t90.5 -118t33 -158v-549q0 -86 -32 -155.5t-87.5 -117.5t-132 -73.5t-166.5 -25.5t-167 25.5t-133.5 72.5t-89 116.5t-32.5 157.5zM227 1452q0 51 35 86t88 35t88 -35t35 -86t-35 -85 t-88 -34t-88 34t-35 85zM352 362q0 -72 48.5 -119.5t140.5 -47.5q86 0 136 48t50 119v545q0 72 -46 121t-138 49t-141.5 -49t-49.5 -121v-545zM586 1452q0 51 35.5 86t89.5 35q51 0 87 -35t36 -86t-35 -85t-88 -34t-89 34t-36 85z" />
<glyph unicode="&#xd7;" d="M176 262l207 207q12 10 11 16.5t-9 16.5l-203 203q-29 29 0 57l54 53q10 10 23 13t34 -13l205 -205q12 -12 34 6l193 195q29 29 59 0l54 -53q29 -29 0 -58l-197 -196q-10 -10 -9 -19.5t11 -19.5l199 -199q10 -12 12 -26.5t-12 -30.5l-51 -51q-16 -16 -33 -15.5t-27 13.5 l-209 206q-12 10 -28 -6l-205 -204q-31 -31 -58 0l-53 51q-31 30 -2 59z" />
<glyph unicode="&#xd8;" horiz-adv-x="1083" d="M119 348v557q0 88 32.5 158t89 118t134.5 73.5t168 25.5q72 0 130 -15.5t115 -45.5q10 -4 15.5 -3t15.5 13l27 43q12 20 37 8l63 -33q14 -8 11 -18t-9 -21l-41 -71q-12 -18 0 -35q25 -33 39.5 -80t14.5 -102v-568q0 -86 -34 -154.5t-90.5 -114.5t-132 -70.5t-159.5 -24.5 q-74 0 -139.5 14t-110.5 43q-16 12 -25 0l-26 -41q-14 -25 -35 -12l-64 35q-14 8 -13 17t9 22l35 61q2 6 6 13t-4 14q-23 35 -41 88t-18 106zM350 451q0 -12 6 -11.5t11 6.5l315 547q12 16 -2 31q-23 27 -61.5 40t-79.5 13q-86 0 -137.5 -50t-51.5 -120v-456zM399 262 q-6 -14 2 -22q25 -23 60 -36.5t82 -13.5q78 0 131 48.5t53 119.5v451q0 12 -3 12t-7 -6z" />
<glyph unicode="&#xd9;" horiz-adv-x="1083" d="M121 356v877q0 31 37 31h157q16 0 26.5 -6.5t10.5 -22.5v-879q0 -68 51.5 -114.5t137.5 -46.5t137 47t51 116v875q0 31 37 31h158q39 0 39 -29v-879q0 -86 -33 -154.5t-90.5 -116.5t-134 -72.5t-162.5 -24.5q-88 0 -165 24.5t-134.5 72.5t-90 116.5t-32.5 154.5z M204 1495q-9 14 7 33l80 96q16 20 36.5 17t47.5 -23l248 -188q27 -20 6 -46l-41 -53q-10 -12 -20.5 -18t-28.5 4l-316 160q-10 4 -19 18z" />
<glyph unicode="&#xda;" horiz-adv-x="1083" d="M121 356v877q0 31 37 31h157q16 0 26.5 -6.5t10.5 -22.5v-879q0 -68 51.5 -114.5t137.5 -46.5t137 47t51 116v875q0 31 37 31h158q39 0 39 -29v-879q0 -86 -33 -154.5t-90.5 -116.5t-134 -72.5t-162.5 -24.5q-88 0 -165 24.5t-134.5 72.5t-90 116.5t-32.5 154.5z M410 1384q-20 25 6 46l248 188q27 20 47 23.5t37 -17.5l79 -96q16 -18 7 -32.5t-19 -18.5l-315 -160q-18 -10 -28.5 -4t-20.5 18z" />
<glyph unicode="&#xdb;" horiz-adv-x="1083" d="M121 356v877q0 31 37 31h157q16 0 26.5 -6.5t10.5 -22.5v-879q0 -68 51.5 -114.5t137.5 -46.5t137 47t51 116v875q0 31 37 31h158q39 0 39 -29v-879q0 -86 -33 -154.5t-90.5 -116.5t-134 -72.5t-162.5 -24.5q-88 0 -165 24.5t-134.5 72.5t-90 116.5t-32.5 154.5z M214 1366q3 10 11 20l205 234q16 20 43 20h137q16 0 25.5 -5t19.5 -15l203 -234q8 -10 11 -20t-13 -16l-65 -31q-16 -8 -25.5 -7t-20.5 11l-192 150q-14 12 -29 2l-190 -154q-10 -10 -18.5 -11t-24.5 7l-64 33q-16 6 -13 16z" />
<glyph unicode="&#xdc;" horiz-adv-x="1083" d="M121 356v877q0 31 37 31h157q16 0 26.5 -6.5t10.5 -22.5v-879q0 -68 51.5 -114.5t137.5 -46.5t137 47t51 116v875q0 31 37 31h158q39 0 39 -29v-879q0 -86 -33 -154.5t-90.5 -116.5t-134 -72.5t-162.5 -24.5q-88 0 -165 24.5t-134.5 72.5t-90 116.5t-32.5 154.5z M236 1452q0 51 34.5 86t87.5 35t88 -35t35 -86t-34.5 -85t-88.5 -34q-53 0 -87.5 34t-34.5 85zM594 1452q0 51 36 86t89 35q51 0 87 -35t36 -86t-35 -85t-88 -34t-89 34t-36 85z" />
<glyph unicode="&#xdd;" horiz-adv-x="952" d="M28 1250.5q3 13.5 31 13.5h162q23 0 36 -5.5t24 -27.5l184 -498q12 -12 18 -2q47 123 94.5 248t90.5 248q10 20 21 28.5t42 8.5h152q33 0 37 -13.5t-2 -27.5l-316 -729q-8 -16 -10 -26.5t-2 -27.5v-403q0 -37 -37 -37h-158q-37 0 -37 35v409q0 25 -10 45l-317 732 q-6 16 -3 29.5zM350 1384q-20 25 6 46l248 188q27 20 47.5 23.5t36.5 -17.5l80 -96q16 -18 7 -32.5t-19 -18.5l-316 -160q-18 -10 -28.5 -4t-20.5 18z" />
<glyph unicode="&#xde;" horiz-adv-x="995" d="M127 31v1202q0 31 39 31h156q37 0 36 -29v-199q4 -20 27 -20h162q92 0 164.5 -29t124 -79t79 -120.5t27.5 -154.5q0 -78 -29.5 -144.5t-82 -115.5t-124 -78t-157.5 -29h-164q-16 0 -20.5 -7t-4.5 -19v-207q0 -33 -36 -33h-158q-37 0 -39 31zM358 498q0 -29 29 -29h160 q74 0 119 47t45 121q0 33 -11.5 64.5t-33 56t-52 39t-67.5 14.5h-158q-16 0 -22.5 -9t-8.5 -20v-284z" />
<glyph unicode="&#xdf;" horiz-adv-x="1003" d="M135 31v889q0 80 25.5 146.5t74 114.5t117 75.5t154.5 27.5t155.5 -25.5t117.5 -72.5t75 -111.5t27 -142.5q0 -53 -25 -110.5t-76 -80.5q-14 -6 -12 -13t10 -11q63 -27 93 -87.5t30 -125.5v-172q0 -78 -28.5 -144.5t-81.5 -113.5q-47 -45 -108.5 -69.5t-131.5 -24.5h-84 q-31 0 -31 26v117q0 33 39 33h49q33 0 61.5 14t49 38.5t32 55.5t11.5 62v170q0 66 -37 109.5t-109 43.5h-16q-31 0 -31 27v108q0 27 29 27h27q57 0 86.5 33t29.5 88q0 66 -39.5 112t-107.5 46t-109 -45.5t-41 -110.5v-901q0 -33 -32 -33h-158q-35 0 -35 31z" />
<glyph unicode="&#xe0;" horiz-adv-x="946" d="M78 305q0 143 92 231.5t258 88.5q84 0 158 -43q10 -6 19 -5t9 17v24q0 61 -36.5 92t-120.5 31q-23 0 -50.5 -4t-57.5 -10t-58.5 -14t-48.5 -17q-35 -14 -45 19l-37 104q-6 14 0 25.5t16 15.5q70 33 146.5 49.5t154.5 16.5q98 0 167 -23.5t112 -67.5t62.5 -107.5 t19.5 -141.5v-557q0 -29 -27 -29h-160q-23 0 -22 23v16q0 31 -29 8t-74 -41t-110 -18q-158 0 -248 83.5t-90 233.5zM268 1290.5q-4 16.5 19 28.5l123 67q16 10 27.5 4t21.5 -20l176 -293q18 -29 -10 -43l-50 -28q-39 -20 -65 8l-231 252q-7 8 -11 24.5zM285 309 q0 -63 40 -107t115 -44q80 0 118 45t40 104q0 63 -40 107.5t-116 44.5q-78 0 -117.5 -43.5t-39.5 -106.5z" />
<glyph unicode="&#xe1;" horiz-adv-x="946" d="M78 305q0 143 92 231.5t258 88.5q84 0 158 -43q10 -6 19 -5t9 17v24q0 61 -36.5 92t-120.5 31q-23 0 -50.5 -4t-57.5 -10t-58.5 -14t-48.5 -17q-35 -14 -45 19l-37 104q-6 14 0 25.5t16 15.5q70 33 146.5 49.5t154.5 16.5q98 0 167 -23.5t112 -67.5t62.5 -107.5 t19.5 -141.5v-557q0 -29 -27 -29h-160q-23 0 -22 23v16q0 31 -29 8t-74 -41t-110 -18q-158 0 -248 83.5t-90 233.5zM285 309q0 -63 40 -107t115 -44q82 0 120 46t38 105q-2 61 -42 105.5t-114 44.5q-78 0 -117.5 -43.5t-39.5 -106.5zM360 1077l179 293q8 14 22 18.5t27 -2.5 l123 -67q23 -12 18.5 -28.5t-12.5 -24.5l-236 -262q-10 -10 -23.5 -11.5t-27.5 6.5l-57 35q-27 14 -13 43z" />
<glyph unicode="&#xe2;" horiz-adv-x="946" d="M78 305q0 143 92 231.5t258 88.5q84 0 158 -43q10 -6 19 -5t9 17v24q0 61 -36.5 92t-120.5 31q-23 0 -50.5 -4t-57.5 -10t-58.5 -14t-48.5 -17q-35 -14 -45 19l-37 104q-6 14 0 25.5t16 15.5q70 33 146.5 49.5t154.5 16.5q98 0 167 -23.5t112 -67.5t62.5 -107.5 t19.5 -141.5v-557q0 -29 -27 -29h-160q-23 0 -22 23v16q0 31 -29 8t-74 -41t-110 -18q-158 0 -248 83.5t-90 233.5zM148.5 1055.5q3.5 11.5 11.5 23.5l205 267q8 10 17 16t26 6h137q16 0 25.5 -6t19.5 -16l203 -267q8 -12 11 -23.5t-13 -19.5l-66 -35q-16 -10 -25.5 -8 t-19.5 13l-193 184q-16 14 -28 2l-191 -188q-10 -10 -18 -12.5t-25 7.5l-63 37q-17 8 -13.5 19.5zM285 309q0 -63 40 -107t115 -44q80 0 118 45t40 104q0 63 -40 107.5t-116 44.5q-78 0 -117.5 -43.5t-39.5 -106.5z" />
<glyph unicode="&#xe3;" horiz-adv-x="946" d="M78 305q0 143 92 231.5t258 88.5q84 0 158 -43q10 -6 19 -5t9 17v24q0 61 -36.5 92t-120.5 31q-23 0 -50.5 -4t-57.5 -10t-58.5 -14t-48.5 -17q-35 -14 -45 19l-37 104q-6 14 0 25.5t16 15.5q70 33 146.5 49.5t154.5 16.5q98 0 167 -23.5t112 -67.5t62.5 -107.5 t19.5 -141.5v-557q0 -29 -27 -29h-160q-23 0 -22 23v16q0 31 -29 8t-74 -41t-110 -18q-158 0 -248 83.5t-90 233.5zM176 1143q29 49 81 84t112 35q33 0 65.5 -10.5t65 -24t62.5 -23.5t54 -10q23 0 43.5 19.5t34.5 35.5q10 14 17.5 15.5t19.5 -7.5l70 -45q14 -10 16 -18 t-8 -31q-33 -59 -85 -92t-101 -33q-37 0 -69 10.5t-61.5 21.5t-59.5 21.5t-60 10.5q-16 0 -43 -11.5t-51 -39.5q-10 -12 -18.5 -12.5t-22.5 12.5l-58 55q-16 17 -4 37zM285 309q0 -63 40 -107t115 -44q80 0 118 45t40 104q0 63 -40 107.5t-116 44.5q-78 0 -117.5 -43.5 t-39.5 -106.5z" />
<glyph unicode="&#xe4;" horiz-adv-x="946" d="M78 305q0 143 92 231.5t258 88.5q84 0 158 -43q10 -6 19 -5t9 17v24q0 61 -36.5 92t-120.5 31q-23 0 -50.5 -4t-57.5 -10t-58.5 -14t-48.5 -17q-35 -14 -45 19l-37 104q-6 14 0 25.5t16 15.5q70 33 146.5 49.5t154.5 16.5q98 0 167 -23.5t112 -67.5t62.5 -107.5 t19.5 -141.5v-557q0 -29 -27 -29h-160q-23 0 -22 23v16q0 31 -29 8t-74 -41t-110 -18q-158 0 -248 83.5t-90 233.5zM174 1135q0 51 35 85.5t88 34.5t88 -34.5t37 -83.5q0 -51 -36 -86t-89 -35t-88 34t-35 85zM285 309q0 -63 40 -107t115 -44q82 0 120 46t38 105 q-2 61 -42 105.5t-114 44.5q-78 0 -117.5 -43.5t-39.5 -106.5zM532 1135q0 51 36 85.5t89 34.5q51 0 87 -34.5t36 -83.5q0 -51 -34.5 -86t-86.5 -35q-53 0 -90 34t-37 85z" />
<glyph unicode="&#xe5;" horiz-adv-x="946" d="M78 305q0 143 92 231.5t258 88.5q84 0 158 -43q10 -6 19 -5t9 17v24q0 61 -36.5 92t-120.5 31q-23 0 -50.5 -4t-57.5 -10t-58.5 -14t-48.5 -17q-35 -14 -45 19l-37 104q-6 14 0 25.5t16 15.5q70 33 146.5 49.5t154.5 16.5q98 0 167 -23.5t112 -67.5t62.5 -107.5 t19.5 -141.5v-557q0 -29 -27 -29h-160q-23 0 -22 23v16q0 31 -29 8t-74 -41t-110 -18q-158 0 -248 83.5t-90 233.5zM285 309q0 -63 40 -107t115 -44q82 0 120 46t38 105q-2 61 -42 105.5t-114 44.5q-78 0 -117.5 -43.5t-39.5 -106.5zM303 1182q0 74 50 127t128 53 q76 0 130.5 -52.5t54.5 -127.5q0 -37 -14.5 -70t-39 -56.5t-58.5 -37.5t-73 -14q-37 0 -69.5 14t-57 38.5t-38 56.5t-13.5 69zM408 1182q0 -33 21.5 -54.5t51.5 -21.5q33 0 55.5 22.5t22.5 53.5t-23.5 55.5t-54.5 24.5t-52 -22.5t-21 -57.5z" />
<glyph unicode="&#xe6;" horiz-adv-x="1464" d="M82 305q0 72 24.5 131.5t68.5 102.5t108.5 66.5t144.5 23.5q39 0 84 -13.5t74 -33.5q10 -8 19 -6t9 18v29q0 61 -49 95t-125 34q-43 0 -101 -17.5t-97 -34.5q-35 -14 -45 19l-37 100q-6 14 0 25.5t16 15.5q70 33 133.5 49.5t147.5 16.5q80 0 146.5 -21.5t115.5 -58.5 q14 -10 22 -4q49 39 115 61.5t143 22.5q82 0 153 -24.5t122 -72t79.5 -114t28.5 -148.5v-96q0 -29 -16 -45t-41 -16h-442q-23 0 -32 -10.5t-9 -24.5v-31q0 -66 43 -114t114 -48q61 0 103.5 31t71.5 66q10 12 20 17t29 -7l100 -64q18 -12 27.5 -24.5t-0.5 -30.5 q-53 -96 -146.5 -139t-199.5 -43q-92 0 -164 26.5t-123 73.5q-12 12 -17.5 8t-13.5 -12q-47 -47 -111.5 -71.5t-150.5 -24.5q-74 0 -137.5 21.5t-108.5 62.5t-70.5 100t-25.5 133zM301 313q0 -61 41 -104t107 -43q72 0 110.5 45t38.5 102q-2 59 -44 102.5t-103 43.5 q-66 0 -108 -42.5t-42 -103.5zM846 588q0 -29 35 -29h247q16 0 23.5 11.5t3.5 27.5h2q-8 61 -52 97t-104 36q-68 0 -108.5 -42t-46.5 -101z" />
<glyph unicode="&#xe7;" horiz-adv-x="864" d="M84 338v231q0 82 28.5 147.5t81 111.5t123 71t156.5 25q117 0 200 -46.5t142 -144.5q4 -10 3 -26.5t-17 -26.5l-115 -66q-27 -16 -39 -3.5t-22 30.5q-27 45 -69 67.5t-85 22.5q-70 0 -116 -45t-46 -111v-239q0 -66 46 -109t114 -43q45 0 87 20.5t67 65.5q10 18 23 30.5 t40 -3.5l115 -64q16 -10 17 -27.5t-3 -27.5q-113 -180 -313 -188l-13 -62v-2q0 -6 15 -6h14q72 0 121 -44t49 -122q0 -31 -12 -61.5t-39 -55t-66 -40t-92 -15.5q-100 0 -168 49q-12 8 -12 19q0 6 6 16l39 47q12 14 21 15q6 0 26 -11q16 -10 39 -17t45 -7q45 0 65.5 17.5 t20.5 41.5q0 27 -15.5 43.5t-53.5 16.5h-62q-39 0 -56.5 20.5t-8.5 54.5l26 107q-141 23 -224 113t-83 231z" />
<glyph unicode="&#xe8;" horiz-adv-x="937" d="M90 336v231q0 80 27.5 145.5t79 113.5t122 74t154.5 26q82 0 152.5 -24.5t122 -72t80 -114t28.5 -148.5v-96q0 -29 -16.5 -45t-40.5 -16h-443q-23 0 -32 -10.5t-9 -24.5v-31q0 -66 43 -114t115 -48q61 0 103 31t71 66q10 12 20.5 17t28.5 -7l101 -64q18 -12 27.5 -24.5 t-1.5 -30.5q-53 -96 -146 -139t-200 -43q-88 0 -159.5 24.5t-122 70.5t-78 110.5t-27.5 142.5zM256 1290.5q-4 16.5 18 28.5l123 67q16 10 27.5 4t21.5 -20l177 -293q18 -29 -11 -43l-49 -28q-39 -20 -65 8l-232 252q-6 8 -10 24.5zM319 588q0 -29 35 -29h248 q16 0 23.5 11.5t5.5 27.5q-8 61 -52 97t-104 36q-68 0 -109 -42t-47 -101z" />
<glyph unicode="&#xe9;" horiz-adv-x="937" d="M90 336v231q0 80 27.5 145.5t79 113.5t122 74t154.5 26q82 0 152.5 -24.5t122 -72t80 -114t28.5 -148.5v-96q0 -29 -16.5 -45t-40.5 -16h-443q-23 0 -32 -10.5t-9 -24.5v-31q0 -66 43 -114t115 -48q61 0 103 31t71 66q10 12 20.5 17t28.5 -7l101 -64q18 -12 27.5 -24.5 t-1.5 -30.5q-53 -96 -146 -139t-200 -43q-88 0 -159.5 24.5t-122 70.5t-78 110.5t-27.5 142.5zM319 588q0 -29 35 -29h248q16 0 23.5 11.5t5.5 27.5q-8 61 -52 97t-104 36q-68 0 -109 -42t-47 -101zM340 1077l178 293q8 14 22.5 18.5t26.5 -2.5l123 -67q23 -12 19 -28.5 t-13 -24.5l-235 -262q-10 -10 -23.5 -11.5t-27.5 6.5l-58 35q-26 14 -12 43z" />
<glyph unicode="&#xea;" horiz-adv-x="937" d="M90 336v231q0 80 27.5 145.5t79 113.5t122 74t154.5 26q82 0 152.5 -24.5t122 -72t80 -114t28.5 -148.5v-96q0 -29 -16.5 -45t-40.5 -16h-443q-23 0 -32 -10.5t-9 -24.5v-31q0 -66 43 -114t115 -48q61 0 103 31t71 66q10 12 20.5 17t28.5 -7l101 -64q18 -12 27.5 -24.5 t-1.5 -30.5q-53 -96 -146 -139t-200 -43q-88 0 -159.5 24.5t-122 70.5t-78 110.5t-27.5 142.5zM148.5 1055.5q3.5 11.5 11.5 23.5l205 267q8 10 17 16t26 6h137q16 0 25.5 -6t19.5 -16l203 -267q8 -12 11 -23.5t-13 -19.5l-66 -35q-16 -10 -25.5 -8t-19.5 13l-193 184 q-16 14 -28 2l-191 -188q-10 -10 -18 -12.5t-25 7.5l-63 37q-17 8 -13.5 19.5zM319 588q0 -29 35 -29h248q16 0 23.5 11.5t5.5 27.5q-8 61 -52 97t-104 36q-68 0 -109 -42t-47 -101z" />
<glyph unicode="&#xeb;" horiz-adv-x="937" d="M90 336v231q0 80 27.5 145.5t79 113.5t122 74t154.5 26q82 0 152.5 -24.5t122 -72t80 -114t28.5 -148.5v-96q0 -29 -16.5 -45t-40.5 -16h-443q-23 0 -32 -10.5t-9 -24.5v-31q0 -66 43 -114t115 -48q61 0 103 31t71 66q10 12 20.5 17t28.5 -7l101 -64q18 -12 27.5 -24.5 t-1.5 -30.5q-53 -96 -146 -139t-200 -43q-88 0 -159.5 24.5t-122 70.5t-78 110.5t-27.5 142.5zM190 1135q0 51 35 85.5t88 34.5t88 -34.5t37 -83.5q0 -51 -35.5 -86t-89.5 -35q-53 0 -88 34t-35 85zM319 588q0 -29 35 -29h248q16 0 23.5 11.5t5.5 27.5q-8 61 -52 97t-104 36 q-68 0 -109 -42t-47 -101zM549 1135q0 51 36 85.5t89 34.5q51 0 87 -34.5t36 -83.5q0 -51 -35 -86t-86 -35q-53 0 -90 34t-37 85z" />
<glyph unicode="&#xec;" horiz-adv-x="458" d="M-22.5 1290.5q-4.5 16.5 18.5 28.5l123 67q16 10 27.5 4t21.5 -20l176 -293q18 -29 -10 -43l-49 -28q-39 -20 -66 8l-231 252q-6 8 -10.5 24.5zM117 31v846q0 33 30 32h160q33 0 33 -32v-844q0 -33 -31 -33h-159q-33 0 -33 31z" />
<glyph unicode="&#xed;" horiz-adv-x="458" d="M117 31v846q0 33 30 32h160q33 0 33 -32v-844q0 -33 -31 -33h-159q-33 0 -33 31zM123 1077l178 293q8 14 22.5 18.5t26.5 -2.5l123 -67q23 -12 18.5 -28.5t-12.5 -24.5l-235 -262q-10 -10 -23.5 -11.5t-27.5 6.5l-58 35q-26 14 -12 43z" />
<glyph unicode="&#xee;" horiz-adv-x="458" d="M-109.5 1055.5q3.5 11.5 11.5 23.5l204 267q8 10 17.5 16t26.5 6h137q16 0 25.5 -6t19.5 -16l203 -267q8 -12 11 -23.5t-14 -19.5l-65 -35q-16 -10 -25.5 -8t-19.5 13l-193 184q-16 14 -28 2l-191 -188q-10 -10 -18 -12.5t-25 7.5l-63 37q-17 8 -13.5 19.5zM117 31v846 q0 33 30 32h160q33 0 33 -32v-844q0 -33 -31 -33h-159q-33 0 -33 31z" />
<glyph unicode="&#xef;" horiz-adv-x="458" d="M-66 1135q0 51 35 85.5t88 34.5t88 -34.5t37 -83.5q0 -51 -35.5 -86t-89.5 -35q-53 0 -88 34t-35 85zM117 31v846q0 33 30 32h160q33 0 33 -32v-844q0 -33 -31 -33h-159q-33 0 -33 31zM293 1135q0 51 36 85.5t89 34.5q51 0 87 -34.5t36 -83.5q0 -51 -35 -86t-86 -35 q-53 0 -90 34t-37 85z" />
<glyph unicode="&#xf0;" horiz-adv-x="954" d="M88 346v133q0 182 88 280.5t260 98.5q59 0 106.5 -15.5t82.5 -39.5q4 -4 13 -2t9 12q0 45 -4 87t-27 81q-6 12 -20 -2l-66 -68q-18 -18 -32 -2q-14 10 -27.5 22.5t-28.5 24.5q-16 16 4 37l72 74q10 10 -1 21.5t-21 15.5q-31 12 -71 18t-83 8q-14 0 -29.5 7.5t-15.5 27.5 v115q2 33 43 33h22q88 -2 160 -18.5t131 -57.5q10 -6 16.5 -8t16.5 8l76 78q18 18 35 0l55 -51q16 -12 -4 -33l-78 -80q-10 -10 -4 -19.5t12 -19.5q25 -37 40.5 -89t22.5 -111.5t9 -120t2 -113.5v-348q-8 -166 -111.5 -254t-269.5 -88q-176 0 -279.5 90t-103.5 268zM311 338 q0 -70 42 -113t114 -43q78 0 121 42t43 114v129q0 39 -7.5 76t-25.5 65.5t-50 46t-83 17.5q-78 0 -116 -48.5t-38 -113.5v-172z" />
<glyph unicode="&#xf1;" horiz-adv-x="983" d="M111 31v846q0 33 32 32h160q29 0 29 -30v-17q0 -14 2 -14q4 -23 22 0q35 33 95.5 53.5t113.5 20.5q162 0 235.5 -97.5t73.5 -251.5v-540q0 -33 -30 -33h-160q-33 0 -33 31v538q0 70 -36.5 114t-122.5 44q-72 0 -114 -44t-42 -112v-538q0 -33 -35 -33h-158q-32 0 -32 31z M160 1143q29 49 81 84t111 35q33 0 66 -10.5t65.5 -24t62 -23.5t54.5 -10q23 0 43.5 19.5t34.5 35.5q10 14 17 15.5t20 -7.5l69 -45q14 -10 16.5 -18t-7.5 -31q-33 -59 -85.5 -92t-101.5 -33q-37 0 -68.5 10.5t-61.5 21.5t-59.5 21.5t-60.5 10.5q-16 0 -42.5 -11.5 t-51.5 -39.5q-10 -12 -18 -12.5t-23 12.5l-57 55q-16 17 -4 37z" />
<glyph unicode="&#xf2;" horiz-adv-x="958" d="M96 332v246q0 78 28 141t78 109t119.5 72t155.5 26q174 0 278.5 -90.5t104.5 -257.5v-240q0 -172 -103.5 -261t-277.5 -89q-176 0 -279.5 92t-103.5 252zM219 1290.5q-4 16.5 19 28.5l122 67q16 10 27.5 4t22.5 -20l176 -293q18 -29 -11 -43l-49 -28q-39 -20 -65 8 l-232 252q-6 8 -10 24.5zM319 340q0 -70 40 -114t118 -44q74 0 117 43t43 115v231q0 72 -41 115t-119 43q-76 0 -117 -44t-41 -114v-231z" />
<glyph unicode="&#xf3;" horiz-adv-x="958" d="M96 332v246q0 78 28 141t78 109t119.5 72t155.5 26q174 0 278.5 -90.5t104.5 -257.5v-240q0 -172 -103.5 -261t-277.5 -89q-176 0 -279.5 92t-103.5 252zM319 340q0 -70 40 -114t118 -44q74 0 117 43t43 115v231q0 72 -41 115t-119 43q-76 0 -117 -44t-41 -114v-231z M381 1077l178 293q8 14 22.5 18.5t26.5 -2.5l123 -67q23 -12 18.5 -28.5t-12.5 -24.5l-235 -262q-10 -10 -23.5 -11.5t-27.5 6.5l-58 35q-26 14 -12 43z" />
<glyph unicode="&#xf4;" horiz-adv-x="958" d="M96 332v246q0 78 28 141t78 109t119.5 72t155.5 26q174 0 278.5 -90.5t104.5 -257.5v-240q0 -172 -103.5 -261t-277.5 -89q-176 0 -279.5 92t-103.5 252zM163 1055.5q3 11.5 11 23.5l205 267q8 10 17.5 16t25.5 6h137q16 0 25.5 -6t19.5 -16l203 -267q8 -12 11 -23.5 t-13 -19.5l-66 -35q-16 -10 -25 -8t-20 13l-192 184q-16 14 -29 2l-190 -188q-10 -10 -18.5 -12.5t-24.5 7.5l-64 37q-16 8 -13 19.5zM319 340q0 -70 40 -114t118 -44q74 0 117 43t43 115v231q0 72 -41 115t-119 43q-76 0 -117 -44t-41 -114v-231z" />
<glyph unicode="&#xf5;" horiz-adv-x="958" d="M96 332v246q0 78 28 141t78 109t119.5 72t155.5 26q174 0 278.5 -90.5t104.5 -257.5v-240q0 -172 -103.5 -261t-277.5 -89q-176 0 -279.5 92t-103.5 252zM168 1143q29 49 81 84t111 35q33 0 66 -10.5t65.5 -24t62.5 -23.5t54 -10q23 0 43.5 19.5t34.5 35.5 q10 14 17.5 15.5t19.5 -7.5l70 -45q14 -10 16 -18t-8 -31q-33 -59 -85 -92t-102 -33q-37 0 -68.5 10.5t-61 21.5t-59.5 21.5t-60 10.5q-16 0 -43 -11.5t-52 -39.5q-10 -12 -18 -12.5t-23 12.5l-57 55q-16 17 -4 37zM319 340q0 -70 40 -114t118 -44q74 0 117 43t43 115v231 q0 72 -41 115t-119 43q-76 0 -117 -44t-41 -114v-231z" />
<glyph unicode="&#xf6;" horiz-adv-x="958" d="M96 332v246q0 78 28 141t78 109t119.5 72t155.5 26q174 0 278.5 -90.5t104.5 -257.5v-240q0 -172 -103.5 -261t-277.5 -89q-176 0 -279.5 92t-103.5 252zM186 1135q0 51 35 85.5t88 34.5t88 -34.5t37 -83.5q0 -51 -36 -86t-89 -35t-88 34t-35 85zM319 340q0 -70 40 -114 t118 -44q74 0 117 43t43 115v231q0 72 -41 115t-119 43q-76 0 -117 -44t-41 -114v-231zM545 1135q0 51 35.5 85.5t89.5 34.5q51 0 87 -34.5t36 -83.5q0 -51 -35 -86t-86 -35q-53 0 -90 34t-37 85z" />
<glyph unicode="&#xf7;" d="M78 504v55q0 49 53 49h756q53 0 53 -49v-53q0 -55 -53 -55h-756q-53 0 -53 53zM360 164q0 59 44.5 101t103.5 42t102 -41t43 -100l2 -2q-2 -57 -44 -98t-101 -41q-61 0 -105.5 40t-44.5 99zM360 891q0 59 44.5 101t103.5 42t103 -41t44 -100t-41 -101t-104 -42t-106.5 41 t-43.5 100z" />
<glyph unicode="&#xf8;" horiz-adv-x="958" d="M93 62.5q-3 11.5 7 21.5l37 43q12 12 4 27l-12 24q-33 66 -33 154v246q0 78 28 141t78 109t120.5 72t154.5 26q137 0 236 -64q10 -4 14 0l8 8l37 45q16 16 35 -2l51 -47q10 -6 12 -15t-8 -15l-43 -54q-12 -14 -2 -26q25 -35 35 -80t10 -98v-238q0 -86 -29.5 -151.5 t-81 -110.5t-121 -67.5t-151.5 -22.5q-129 0 -221 55q-10 4 -15 8t-14 -6l-39 -49q-12 -16 -34 2l-56 49q-4 4 -7 15.5zM319 371q0 -12 9 -4l252 311q10 12 -17 29q-39 23 -86 22q-66 0 -112 -44t-46 -114v-200zM381 213q41 -31 96 -31q70 0 114 42t46 114v199q0 4 -2 8 t-8 -4l-240 -299q-18 -23 -6 -29z" />
<glyph unicode="&#xf9;" horiz-adv-x="970" d="M96 336v541q0 33 31 32h160q35 0 35 -30v-541q0 -66 43 -112t114 -46q72 0 115 45t43 113v539q0 33 33 32h157q35 0 35 -30v-846q0 -33 -33 -33h-161q-29 0 -29 29v22q0 8 -8 8t-15 -6q-31 -29 -79 -48t-99 -19q-80 0 -143.5 25.5t-107.5 71.5t-67.5 110.5t-23.5 142.5z M264 1290.5q-4 16.5 19 28.5l123 67q16 10 27 4t22 -20l176 -293q18 -29 -10 -43l-50 -28q-39 -20 -65 8l-232 252q-6 8 -10 24.5z" />
<glyph unicode="&#xfa;" horiz-adv-x="970" d="M96 336v541q0 33 31 32h160q35 0 35 -30v-541q0 -66 43 -112t114 -46q72 0 115 45t43 113v539q0 33 33 32h157q35 0 35 -30v-846q0 -33 -33 -33h-161q-29 0 -29 29v22q0 8 -8 8t-15 -6q-31 -29 -79 -48t-99 -19q-80 0 -143.5 25.5t-107.5 71.5t-67.5 110.5t-23.5 142.5z M371 1077l178 293q8 14 22.5 18.5t26.5 -2.5l123 -67q23 -12 18.5 -28.5t-12.5 -24.5l-235 -262q-10 -10 -23.5 -11.5t-28.5 6.5l-57 35q-26 14 -12 43z" />
<glyph unicode="&#xfb;" horiz-adv-x="970" d="M96 336v541q0 33 31 32h160q35 0 35 -30v-541q0 -66 43 -112t114 -46q72 0 115 45t43 113v539q0 33 33 32h157q35 0 35 -30v-846q0 -33 -33 -33h-161q-29 0 -29 29v22q0 8 -8 8t-15 -6q-31 -29 -79 -48t-99 -19q-80 0 -143.5 25.5t-107.5 71.5t-67.5 110.5t-23.5 142.5z M138 1055.5q3 11.5 12 23.5l204 267q8 10 17.5 16t25.5 6h138q16 0 25 -6t20 -16l202 -267q8 -12 11.5 -23.5t-13.5 -19.5l-65 -35q-16 -10 -25.5 -8t-19.5 13l-193 184q-16 14 -28 2l-191 -188q-10 -10 -18.5 -12.5t-24.5 7.5l-63 37q-17 8 -14 19.5z" />
<glyph unicode="&#xfc;" horiz-adv-x="970" d="M96 336v541q0 33 31 32h160q35 0 35 -30v-541q0 -66 43 -112t114 -46q72 0 115 45t43 113v539q0 33 33 32h157q35 0 35 -30v-846q0 -33 -33 -33h-161q-29 0 -29 29v22q0 8 -8 8t-15 -6q-31 -29 -79 -48t-99 -19q-80 0 -143.5 25.5t-107.5 71.5t-67.5 110.5t-23.5 142.5z M184 1135q0 51 35 85.5t88 34.5t88 -34.5t37 -83.5q0 -51 -36 -86t-89 -35t-88 34t-35 85zM543 1135q0 51 35.5 85.5t89.5 34.5q51 0 87 -34.5t36 -83.5q0 -51 -35 -86t-86 -35q-53 0 -90 34t-37 85z" />
<glyph unicode="&#xfd;" horiz-adv-x="888" d="M29 868q-12 45 30 45h164q23 0 33 -11t16 -28l95 -382l59 -248q4 -16 12 -16.5t15 16.5l71 245l119 381q4 16 15.5 29.5t37.5 13.5h148q20 0 30.5 -14t2.5 -37l-385 -1192q-6 -16 -20.5 -29.5t-39.5 -13.5h-133q-23 0 -32 12.5t1 41.5l88 284q4 16 3 25.5t-19 9.5h-23 q-23 0 -34 10t-17 33zM358 1077l179 293q8 14 22 18.5t27 -2.5l123 -67q23 -12 18.5 -28.5t-12.5 -24.5l-236 -262q-10 -10 -23.5 -11.5t-27.5 6.5l-57 35q-27 14 -13 43z" />
<glyph unicode="&#xfe;" horiz-adv-x="962" d="M109 -340v1593q0 31 34 31h152q16 0 24.5 -5t8.5 -26v-374q0 -33 13 -27t24 16q29 23 70.5 39.5t94.5 16.5q82 0 146.5 -27t108.5 -75t66.5 -112.5t22.5 -138.5v-233q0 -74 -25.5 -138.5t-71.5 -112.5t-110.5 -75.5t-142.5 -27.5q-53 0 -92 13t-61 32q-18 14 -27.5 10 t-9.5 -16v-361q0 -33 -33 -33h-158q-34 0 -34 31zM334 338q0 -66 43 -112t115 -46t114.5 46t42.5 112v233q0 66 -45 111t-112 45q-70 0 -114 -45t-44 -111v-233z" />
<glyph unicode="&#xff;" horiz-adv-x="888" d="M29 868q-12 45 30 45h164q23 0 33 -11t16 -28l95 -382l59 -248q4 -16 12 -16.5t15 16.5l71 245l119 381q4 16 15.5 29.5t37.5 13.5h148q20 0 30.5 -14t2.5 -37l-385 -1192q-6 -16 -20.5 -29.5t-39.5 -13.5h-133q-23 0 -32 12.5t1 41.5l88 284q4 16 3 25.5t-19 9.5h-23 q-23 0 -34 10t-17 33zM147 1135q0 51 35 85.5t88 34.5t88 -34.5t37 -83.5q0 -51 -35.5 -86t-89.5 -35q-53 0 -88 34t-35 85zM506 1135q0 51 36 85.5t89 34.5q51 0 87 -34.5t36 -83.5q0 -51 -35 -86t-86 -35q-53 0 -90 34t-37 85z" />
<glyph unicode="&#x152;" horiz-adv-x="1439" d="M119 350v570q0 86 29.5 153.5t84 114.5t128 71.5t161.5 24.5q37 0 74 -5t70 -15h659q35 0 35 -31v-137q0 -35 -33 -35h-459q-33 0 -32 -27v-254q0 -18 5 -25t25 -7h379q33 0 33 -33v-140q0 -33 -31 -32h-383q-18 0 -23 -7.5t-5 -23.5v-274q0 -18 8 -24.5t28 -6.5h465 q33 0 33 -35v-137q0 -35 -33 -35h-692q-25 -6 -57.5 -9t-63.5 -3q-92 0 -166.5 23.5t-128 68.5t-82 112.5t-28.5 157.5zM348 352q0 -72 46 -114.5t132 -42.5q43 0 78 12v858q-37 12 -76 12q-84 0 -132 -45t-48 -114v-566z" />
<glyph unicode="&#x153;" horiz-adv-x="1480" d="M96 332v246q0 78 28 141t78 109t120.5 72t154.5 26q72 0 139.5 -23.5t114.5 -66.5q12 -12 21.5 -11.5t21.5 11.5q41 43 109.5 66.5t140.5 23.5q82 0 152.5 -24.5t121 -72t79 -114t28.5 -148.5v-96q0 -29 -16.5 -45t-38.5 -16h-445q-23 0 -32 -10.5t-9 -24.5v-31 q0 -66 44 -114t116 -48q59 0 102 31t72 66q10 12 20.5 17t28.5 -7l101 -64q18 -12 26 -24.5t-2 -30.5q-53 -96 -145 -139t-201 -43q-74 0 -136.5 20.5t-109.5 63.5q-18 16 -29.5 14t-27.5 -14q-100 -84 -244 -84q-82 0 -152.5 23.5t-121.5 68.5t-80 108.5t-29 143.5z M319 340q0 -70 45.5 -114t112.5 -44q70 0 114 42t46 114v233q0 72 -44 115t-116 43q-66 0 -112 -44t-46 -114v-231zM870 588q-4 -29 33 -29h248q16 0 23.5 11.5t5.5 27.5q-6 61 -50.5 97t-105.5 36q-68 0 -108 -42t-46 -101z" />
<glyph unicode="&#x178;" horiz-adv-x="952" d="M28 1250.5q3 13.5 31 13.5h162q23 0 36 -5.5t24 -27.5l184 -498q12 -12 18 -2q47 123 94.5 248t90.5 248q10 20 21 28.5t42 8.5h152q33 0 37 -13.5t-2 -27.5l-316 -729q-8 -16 -10 -26.5t-2 -27.5v-403q0 -37 -37 -37h-158q-37 0 -37 35v409q0 25 -10 45l-317 732 q-6 16 -3 29.5zM168 1452q0 51 35 86t88 35t88 -35t35 -86t-35 -85t-88 -34t-88 34t-35 85zM526 1452q0 51 36 86t89 35q51 0 87 -35t36 -86t-34.5 -85t-88.5 -34q-53 0 -89 34t-36 85z" />
<glyph unicode="&#x2c6;" horiz-adv-x="935" d="M148.5 1055.5q3.5 11.5 11.5 23.5l205 267q8 10 17 16t26 6h137q16 0 25.5 -6t19.5 -16l203 -267q8 -12 11 -23.5t-13 -19.5l-66 -35q-16 -10 -25.5 -8t-19.5 13l-193 184q-16 14 -28 2l-191 -188q-10 -10 -18 -12.5t-25 7.5l-63 37q-17 8 -13.5 19.5z" />
<glyph unicode="&#x2dc;" horiz-adv-x="935" d="M154 1143q29 49 81 84t111 35q33 0 65.5 -10.5t65.5 -24t62.5 -23.5t54.5 -10q23 0 43 19.5t35 35.5q10 14 17 15.5t20 -7.5l69 -45q14 -10 16.5 -18t-8.5 -31q-33 -59 -85 -92t-101 -33q-37 0 -68.5 10.5t-61.5 21.5t-59.5 21.5t-60.5 10.5q-16 0 -42.5 -11.5 t-51.5 -39.5q-10 -12 -18.5 -12.5t-22.5 12.5l-57 55q-16 17 -4 37z" />
<glyph unicode="&#x2000;" horiz-adv-x="841" />
<glyph unicode="&#x2001;" horiz-adv-x="1683" />
<glyph unicode="&#x2002;" horiz-adv-x="841" />
<glyph unicode="&#x2003;" horiz-adv-x="1683" />
<glyph unicode="&#x2004;" horiz-adv-x="561" />
<glyph unicode="&#x2005;" horiz-adv-x="420" />
<glyph unicode="&#x2006;" horiz-adv-x="280" />
<glyph unicode="&#x2007;" horiz-adv-x="280" />
<glyph unicode="&#x2008;" horiz-adv-x="210" />
<glyph unicode="&#x2009;" horiz-adv-x="336" />
<glyph unicode="&#x200a;" horiz-adv-x="93" />
<glyph unicode="&#x2010;" horiz-adv-x="663" d="M90 420v117q0 29 31 28h409q31 0 31 -26v-117q0 -31 -29 -31h-409q-33 0 -33 29z" />
<glyph unicode="&#x2011;" horiz-adv-x="663" d="M90 420v117q0 29 31 28h409q31 0 31 -26v-117q0 -31 -29 -31h-409q-33 0 -33 29z" />
<glyph unicode="&#x2012;" horiz-adv-x="663" d="M90 420v117q0 29 31 28h409q31 0 31 -26v-117q0 -31 -29 -31h-409q-33 0 -33 29z" />
<glyph unicode="&#x2013;" horiz-adv-x="1024" d="M61 436v92q0 29 31 29h838q33 0 33 -29v-92q0 -29 -31 -28h-838q-33 -1 -33 28z" />
<glyph unicode="&#x2014;" horiz-adv-x="2048" d="M61 436v92q0 29 31 29h1862q33 0 33 -29v-92q0 -29 -33 -28h-1860q-33 -1 -33 28z" />
<glyph unicode="&#x2018;" horiz-adv-x="446" d="M69.5 881.5q-10.5 19.5 0.5 54.5l108 362q10 29 25.5 38.5t38.5 9.5h59q33 0 40 -23t5 -45l-24 -352q-2 -27 -15.5 -45.5t-48.5 -18.5h-135q-43 0 -53.5 19.5z" />
<glyph unicode="&#x2019;" horiz-adv-x="452" d="M102 928l23 354q4 27 17.5 45.5t45.5 18.5h136q45 0 54 -20.5t-1 -53.5l-107 -363q-10 -31 -25.5 -39t-39.5 -8h-60q-33 0 -39 21.5t-4 44.5z" />
<glyph unicode="&#x201a;" horiz-adv-x="468" d="M100 -172l25 354q2 27 15.5 45.5t47.5 18.5h134q45 0 55 -20.5t0 -55.5l-109 -360q-10 -29 -25.5 -39.5t-37.5 -10.5h-62q-33 0 -38 22.5t-5 45.5z" />
<glyph unicode="&#x201c;" horiz-adv-x="733" d="M65.5 881.5q-10.5 19.5 0.5 54.5l108 362q10 29 24.5 38.5t39.5 9.5h59q33 0 39 -23t4 -45l-23 -352q-4 -27 -17 -45.5t-46 -18.5h-135q-43 0 -53.5 19.5zM380 881.5q-9 19.5 1 54.5l108 362q10 29 24.5 38.5t39.5 9.5h59q31 0 38 -23t5 -45l-24 -352q-2 -27 -15.5 -45.5 t-48.5 -18.5h-133q-45 0 -54 19.5z" />
<glyph unicode="&#x201d;" horiz-adv-x="733" d="M80 928l24 354q4 25 16.5 44.5t47.5 19.5h133q45 0 54.5 -19.5t-1.5 -54.5l-106 -363q-10 -31 -25.5 -39t-38.5 -8h-61q-31 0 -38 21.5t-5 44.5zM395 928l23 354q4 27 17.5 45.5t45.5 18.5h133q45 0 55.5 -20.5t0.5 -53.5l-107 -363q-10 -31 -25.5 -39t-39.5 -8h-60 q-33 0 -39 21.5t-4 44.5z" />
<glyph unicode="&#x201e;" horiz-adv-x="808" d="M100 -172l25 354q2 27 16.5 45.5t46.5 18.5h136q45 0 54 -20.5t-1 -55.5l-109 -360q-10 -29 -25.5 -39.5t-37.5 -10.5h-62q-33 0 -39 22.5t-4 45.5zM442 -172l23 354q4 27 17.5 45.5t45.5 18.5h136q45 0 54 -20.5t-1 -55.5l-109 -360q-10 -29 -25.5 -39.5t-37.5 -10.5 h-62q-31 0 -37 22.5t-4 45.5z" />
<glyph unicode="&#x2022;" horiz-adv-x="786" d="M139 479q0 53 20.5 100.5t55.5 82t81 55t99 20.5t99.5 -20.5t81 -55t55 -82t20.5 -98.5q0 -53 -20.5 -99t-55 -81t-80.5 -55.5t-100 -20.5q-53 0 -99 20.5t-81 54.5t-55.5 80t-20.5 99z" />
<glyph unicode="&#x2026;" horiz-adv-x="1503" d="M125 113q0 53 40 92t93 39q57 0 97 -38t40 -93h2q0 -53 -40 -93t-97 -40q-55 0 -95 40t-40 93zM625 113q0 53 40 92t93 39q57 0 97 -38t40 -93h2q0 -53 -40 -93t-97 -40q-55 0 -95 40t-40 93zM1114 113q0 53 40 92t95 39t96 -38t41 -93q0 -53 -39.5 -93t-95.5 -40 q-57 0 -97 40t-40 93z" />
<glyph unicode="&#x202f;" horiz-adv-x="336" />
<glyph unicode="&#x2039;" horiz-adv-x="714" d="M119 408q-4 14 6 43.5t25 46.5l204 247q16 20 30.5 29.5t43.5 9.5h133q25 0 34 -16t-7 -37l-236 -285q-6 -8 -10 -18t-2 -16q-2 -8 4 -19.5t12 -19.5l232 -281q16 -20 7 -36.5t-34 -16.5h-133q-29 0 -43 10t-31 29l-211 256q-10 14 -19 37t-5 37z" />
<glyph unicode="&#x203a;" horiz-adv-x="714" d="M118 55.5q-9 16.5 7 36.5l231 281q6 8 12.5 19t4.5 20q2 6 -2 16t-11 18l-235 285q-16 20 -7 36.5t34 16.5h133q29 0 43 -9t30 -30l205 -247q14 -16 24.5 -46t6.5 -44q4 -14 -5 -37t-20 -37l-211 -256q-16 -18 -30.5 -28.5t-42.5 -10.5h-133q-25 0 -34 16.5z" />
<glyph unicode="&#x205f;" horiz-adv-x="420" />
<glyph unicode="&#x20ac;" d="M63 465v82q0 31 33 31h588q18 0 23.5 -13.5t5.5 -17.5v-80q0 -33 -33 -33h-254q-35 0 -35 -28v-62q0 -68 49 -114t135 -46q63 0 107.5 24.5t75.5 72.5q10 14 20 22t29 -2l129 -74q12 -8 14 -21t-6 -26q-63 -109 -155.5 -150.5t-215.5 -41.5q-86 0 -160.5 23.5t-128 68.5 t-84 111.5t-30.5 150.5v72q0 20 -20 20h-54q-33 0 -33 31zM63 709v82q0 31 33 30h51q16 0 18.5 9.5t2.5 17.5v76q0 88 31.5 155.5t86 112.5t126 67.5t151.5 22.5q66 0 131.5 -14.5t112.5 -44.5q45 -29 75.5 -66t47.5 -72q4 -10 4 -24t-19 -25l-114 -63q-37 -23 -53 4 q-25 39 -65 74.5t-120 35.5q-31 0 -61.5 -11t-55 -31.5t-40 -50t-15.5 -68.5v-78q0 -14 7.5 -20.5t31.5 -6.5h250q33 0 33 -30v-82q0 -31 -33 -31h-584q-33 0 -33 31z" />
<glyph unicode="&#x2122;" horiz-adv-x="1245" d="M47 1165v78q0 23 16 23h414q20 0 21 -23v-78q0 -20 -21 -20h-115q-16 0 -20 -7.5t-4 -17.5v-491q0 -20 -21 -21h-90q-23 0 -22 21v491q0 25 -19 25h-120q-19 0 -19 20zM541 627v612q0 27 22 27h68q18 0 23 -4.5t14 -20.5q45 -104 90 -205.5t88 -206.5l6 -6q4 -4 10 6 l174 410q12 27 35 27h70q10 0 17 -7.5t7 -17.5v-614q0 -18 -20 -19h-82q-20 0 -21 17v301q0 8 -5 7t-7 -5l-125 -279q-6 -10 -12 -16t-19 -6h-40q-20 0 -31 18l-125 281q-4 8 -5 6t-5 -6l-2 -299q0 -18 -19 -19h-84q-22 1 -22 19z" />
<glyph unicode="&#xe000;" horiz-adv-x="905" d="M0 0v905h905v-905h-905z" />
<glyph unicode="&#xfb01;" horiz-adv-x="989" d="M29 760v117q0 31 32 30h72q27 0 27 23v117q0 125 84 201.5t252 76.5q100 0 166.5 -20.5t103.5 -42.5q25 -16 25 -27q0 -6 -3 -10l-57 -131q-10 -18 -22 -19q-8 0 -15.5 3t-15.5 7q-33 16 -78 25.5t-92 9.5q-66 0 -97.5 -35.5t-31.5 -89.5v-67q0 -20 24 -21h451 q16 0 23.5 -9t7.5 -21v-844q0 -33 -33 -33h-154q-33 0 -32 31v661q0 23 -7.5 29t-33.5 6h-217q-18 0 -23.5 -8t-5.5 -19v-671q0 -29 -33 -29h-158q-31 0 -30 29v669q0 29 -27 29h-74q-28 0 -28 33z" />
<glyph unicode="&#xfb02;" horiz-adv-x="1062" d="M29 760v117q0 31 32 30h72q27 0 27 23v141q8 115 92 183.5t244 68.5q47 0 87 -6t76 -17q16 -4 32 -9t32 -5h9q5 0 9 2q27 10 55.5 16.5t59.5 6.5q18 0 23.5 -10.5t5.5 -34.5v-979q0 -59 16.5 -80t65.5 -21h22q20 0 24.5 -12t4.5 -22v-129q0 -23 -14.5 -29t-34.5 -8 q-16 -2 -34 -2h-22q-141 0 -195 77.5t-54 223.5v764q0 27 -11.5 36t-27.5 13q-55 16 -117 16q-57 0 -93 -33.5t-36 -87.5v-65q0 -20 24 -21h144q39 0 39 -39v-104q0 -23 -11.5 -30t-27.5 -7h-139q-18 0 -23.5 -8t-5.5 -19v-671q0 -29 -33 -29h-158q-31 0 -30 29v669 q0 29 -27 29h-74q-28 0 -28 33z" />
<glyph unicode="&#xfb03;" horiz-adv-x="1505" d="M29 760v117q0 31 32 30h72q27 0 27 23v94q0 57 21.5 107.5t63.5 88t104.5 60.5t146.5 23q72 0 128 -14.5t97 -31.5q2 -2 10 -2q6 0 19.5 8.5t19.5 12.5q90 70 242 70q96 0 163.5 -20.5t104.5 -43.5q25 -12 25 -31q0 -10 -7 -22l-45 -109q-12 -23 -28 -22q-14 0 -33 8 q-39 16 -81 24.5t-89 8.5q-59 0 -93 -35t-34 -88v-88q0 -20 23 -21h446q23 0 30 -9t7 -32v-837q0 -29 -35 -29h-154q-33 0 -32 29v665q0 20 -6.5 26.5t-26.5 6.5h-223q-20 0 -24.5 -8t-4.5 -19v-671q0 -29 -33 -29h-160q-31 0 -30 29v669q0 29 -25 29h-239q-18 0 -23.5 -8 t-5.5 -19v-671q0 -29 -33 -29h-158q-31 0 -30 29v669q0 29 -27 29h-74q-28 0 -28 33zM379 928q0 -20 24 -21h246q23 0 23 23v114q0 14 -4 19.5t-17 9.5q-29 12 -62.5 17.5t-70.5 5.5q-61 0 -100 -31t-39 -94v-43z" />
<glyph unicode="&#xfb04;" horiz-adv-x="1548" d="M29 760v117q0 31 32 30h72q27 0 27 23v119q10 106 94 180t242 74q72 0 128 -14.5t97 -31.5q2 -2 10 -2q10 0 17 7q45 37 111.5 60.5t152.5 23.5q47 0 87 -6.5t77 -16.5q16 -4 31.5 -9t31.5 -5h9q5 0 9 2q27 10 55.5 16t59.5 6q18 0 23.5 -10t5.5 -35v-999q0 -59 16.5 -80 t65.5 -21h22q20 0 24.5 -12t4.5 -22v-129q0 -23 -14.5 -29t-34.5 -8q-16 -2 -34 -2h-21q-141 0 -196.5 77.5t-55.5 223.5v784q0 27 -11.5 36t-27.5 13q-27 8 -54.5 13.5t-62.5 5.5q-57 0 -93 -35t-36 -88v-88q0 -20 25 -21h137q39 0 39 -39v-104q0 -23 -10.5 -30t-28.5 -7 h-133q-18 0 -23.5 -8t-5.5 -19v-671q0 -29 -33 -29h-158q-33 0 -32 29v669q0 12 -4 20.5t-21 8.5h-237q-18 0 -23.5 -8t-5.5 -19v-671q0 -29 -33 -29h-158q-31 0 -30 29v669q0 29 -27 29h-74q-28 0 -28 33zM379 928q0 -20 24 -21h246q23 0 23 23v114q0 12 -3 16.5t-10 8.5 q-27 14 -66.5 20.5t-80.5 6.5q-66 0 -99.5 -33t-33.5 -92v-43z" />
</font>
</defs>
</svg>
