<?xml version="1.0" standalone="no"?>
<!DOCTYPE svg PUBLIC "-//W3C//DTD SVG 1.1//EN" "http://www.w3.org/Graphics/SVG/1.1/DTD/svg11.dtd" >
<svg xmlns="http://www.w3.org/2000/svg">
<metadata></metadata>
<defs>
<font id="pf_handbook_pro_black_trRg" horiz-adv-x="1062" >
<font-face units-per-em="2048" ascent="1536" descent="-512" />
<missing-glyph horiz-adv-x="501" />
<glyph unicode="&#xfb01;" horiz-adv-x="1081" d="M20 741v136q0 43 48 43h61q27 0 27 24v109q0 57 20.5 108t66.5 91t118 63.5t174 23.5q111 0 186.5 -25.5t112.5 -45.5q35 -20 34 -37q0 -8 -10 -33l-47 -135q-18 -35 -41 -35q-14 0 -45 12q-47 18 -91 24.5t-79 6.5q-55 0 -87 -27.5t-32 -68.5v-33q0 -10 5 -16t22 -6h483 q43 0 43 -43v-834q0 -43 -47 -43h-188q-45 0 -45 43v619q0 29 -13.5 32.5t-23.5 3.5h-197q-29 0 -34 -12t-5 -22v-621q0 -43 -45 -43h-192q-45 0 -45 43v621q0 14 -7.5 24t-23.5 10h-55q-47 0 -48 43z" />
<glyph unicode="&#xfb02;" horiz-adv-x="1159" d="M20 741v136q0 43 48 43h61q27 0 27 24v98q0 57 20.5 108.5t66.5 91.5t117.5 63.5t174.5 23.5q59 0 107 -8t87 -21q12 -4 22.5 -7t24.5 -3q6 0 12.5 1t16.5 3l110 23q10 2 19.5 3t17.5 1q25 0 31 -13.5t6 -41.5v-940q0 -47 12.5 -68.5t61.5 -21.5h18q25 0 31 -15.5 t6 -25.5v-160q0 -31 -13 -38t-36 -11q-27 -4 -52.5 -3t-29.5 1q-281 0 -280 311v741q-43 14 -82 19.5t-70 5.5q-55 0 -87 -27.5t-32 -68.5v-23q0 -10 5 -16t22 -6h127q47 0 47 -43v-136q0 -43 -47 -43h-115q-29 0 -34 -12t-5 -22v-621q0 -43 -45 -43h-192q-45 0 -45 43v621 q0 14 -7.5 24t-23.5 10h-55q-47 0 -48 43z" />
<glyph unicode="&#xfb03;" horiz-adv-x="1652" d="M20 741v136q0 43 48 43h61q27 0 27 24v100q0 57 20.5 108.5t66.5 91.5t117.5 63.5t174.5 23.5q78 0 138 -14t103 -31q4 -2 12 -2q10 0 23 8q49 35 119.5 61.5t175.5 26.5q111 0 186.5 -25.5t112.5 -45.5q35 -20 35 -37q0 -8 -10 -33l-48 -135q-18 -35 -41 -35 q-14 0 -45 12q-47 18 -91 24.5t-79 6.5q-55 0 -86.5 -27.5t-31.5 -68.5v-74q0 -10 5 -16t21 -6h484q43 0 43 -43v-834q0 -43 -48 -43h-188q-45 0 -45 43v655h-233q-29 0 -34 -12t-5 -22v-621q0 -43 -45 -43h-193q-45 0 -45 43v621q0 14 -7 24t-24 10h-219q-29 0 -34 -12 t-5 -22v-621q0 -43 -45 -43h-192q-45 0 -45 43v621q0 14 -7.5 24t-23.5 10h-55q-47 0 -48 43zM436 942q0 -10 5 -16t22 -6h237q27 0 27 24v72q0 14 -4 16l-8 4q-45 16 -85 21.5t-75 5.5q-55 0 -87 -27.5t-32 -68.5v-25z" />
<glyph unicode="&#xfb04;" horiz-adv-x="1728" d="M20 741v136q0 43 48 43h61q27 0 27 24v100q0 57 20.5 108.5t66.5 91.5t117.5 63.5t174.5 23.5q78 0 138 -14t103 -31q4 -2 12 -2q10 0 23 8q49 35 119.5 61.5t175.5 26.5q66 0 118 -8t93 -24q14 -6 29 -7q14 0 24 2l119 23q10 2 27 2q27 0 35 -11t8 -30v-1001 q0 -47 12 -68.5t61 -21.5h19q25 0 31 -15.5t6 -25.5v-160q0 -31 -13.5 -38t-36.5 -11q-27 -4 -52 -3t-30 1q-281 0 -280 311v795q-41 14 -80 18t-70 4q-55 0 -86.5 -27.5t-31.5 -68.5v-74q0 -10 5 -16t21 -6h117q47 0 47 -43v-136q0 -43 -47 -43h-104q-29 0 -34 -12t-5 -22 v-621q0 -43 -45 -43h-193q-45 0 -45 43v621q0 14 -7 24t-24 10h-219q-29 0 -34 -12t-5 -22v-621q0 -43 -45 -43h-192q-45 0 -45 43v621q0 14 -7.5 24t-23.5 10h-55q-47 0 -48 43zM436 942q0 -10 5 -16t22 -6h237q27 0 27 24v72q0 14 -4 16l-8 4q-45 16 -85 21.5t-75 5.5 q-55 0 -87 -27.5t-32 -68.5v-25z" />
<glyph horiz-adv-x="2048" />
<glyph horiz-adv-x="2048" />
<glyph unicode="&#xd;" horiz-adv-x="2048" />
<glyph unicode=" "  horiz-adv-x="501" />
<glyph unicode="&#x09;" horiz-adv-x="501" />
<glyph unicode="&#xa0;" horiz-adv-x="501" />
<glyph unicode="!" horiz-adv-x="598" d="M166 141q0 66 47 110t113 44q33 0 62.5 -12.5t51 -33t34.5 -49t13 -59.5t-13 -58.5t-34.5 -49t-51 -33.5t-62.5 -12q-66 0 -113 46t-47 107zM186 1225q-4 39 35 39h211q37 0 35 -39l-43 -819q-2 -8 -4 -15q-4 -4 -7 -8t-14 -4h-141q-14 0 -22 12q-4 6 -5 15z" />
<glyph unicode="&#x22;" horiz-adv-x="718" d="M100 856v369q0 23 15.5 31t31.5 8h119q16 0 30.5 -9.5t14.5 -27.5v-371q0 -23 -18.5 -30t-28.5 -7h-117q-16 0 -31.5 8.5t-15.5 28.5zM401 856v369q0 23 15.5 31t32.5 8h116q16 0 30.5 -9.5t14.5 -27.5v-371q0 -23 -17.5 -30t-29.5 -7h-117q-16 0 -30.5 8.5t-14.5 28.5z " />
<glyph unicode="#" d="M27 391l26 127q6 35 43 35h103q16 0 23 8t11 19l27 116q4 12 0 17.5t-22 5.5h-105q-47 0 -37 43l29 133q6 35 43 35h129q12 0 16 4t9 14l38 178q6 29 41 29h123q33 0 39 -15.5t2 -31.5l-35 -156q-4 -10 -1 -16t20 -6h94q14 0 18.5 5t8.5 15l45 176q6 29 39 29h123 q33 0 40 -15.5t3 -31.5l-37 -156q-6 -23 20 -22h94q31 0 35 -17.5t0 -40.5l-24 -118q-6 -35 -45 -35h-105q-18 0 -24.5 -5t-10.5 -20l-26 -112q-4 -18 -1 -23.5t19 -5.5h111q23 0 32 -12.5t5 -30.5l-25 -125q-6 -35 -47 -35h-119q-20 0 -25.5 -5t-9.5 -21l-49 -220 q-4 -16 -15 -22t-26 -6h-121q-33 0 -39 16.5t-2 32.5l41 203q6 23 -20 22h-92q-16 0 -21.5 -7t-9.5 -19l-47 -220q-4 -16 -15.5 -22t-25.5 -6h-123q-23 0 -35 12t-8 35l45 203q4 14 1 19t-19 5h-95q-45 0 -34 41zM449 578q-4 -16 1 -20.5t17 -4.5h88q16 0 21.5 5t9.5 22 l24 112q4 12 2 19.5t-16 7.5h-94q-16 0 -21.5 -5t-9.5 -22z" />
<glyph unicode="$" d="M90 186.5q0 14.5 12 30.5l88 127q29 39 51.5 35t69.5 -39q35 -25 88.5 -47.5t102.5 -22.5q61 0 108 27t47 74q0 29 -25.5 53.5t-62.5 43.5t-78.5 34.5t-76.5 27.5q-59 25 -116.5 51.5t-102.5 64.5t-72 91.5t-27 130.5q0 123 85 215.5t220 128.5q10 4 25.5 9.5t15.5 33.5 v103q0 33 37 33h107q35 0 35 -33v-103q0 -20 7 -27t29 -11q72 -16 134.5 -45t95.5 -56q23 -18 33 -39.5t-17 -56.5l-80 -119q-20 -29 -49 -18.5t-72 39.5q-41 29 -88 42t-88 13q-53 0 -93 -23.5t-40 -76.5q0 -25 19.5 -44.5t47 -35t58.5 -26.5t53 -17q61 -16 130 -44 t127.5 -71t96.5 -106.5t38 -151.5q0 -141 -86 -234.5t-222 -121.5q-10 -2 -22 -7.5t-12 -31.5v-113q0 -35 -35 -35h-107q-37 0 -37 35v104q0 18 -16 26.5t-33 12.5q-68 20 -137.5 45t-124.5 66q-8 6 -18.5 14.5t-16.5 19.5t-6 25.5z" />
<glyph unicode="%" horiz-adv-x="1597" d="M78 725v332q0 57 21.5 100t58.5 71.5t87 43t107 14.5t108.5 -14.5t90.5 -43t60.5 -71.5t21.5 -100v-332q0 -55 -21.5 -98t-59.5 -73t-89 -44t-109 -14q-57 0 -107 14t-88 43t-59.5 72t-21.5 100zM283 725q0 -29 21.5 -43t47.5 -14q31 0 52.5 14t21.5 43v332 q0 31 -21.5 46t-50.5 15t-50 -15.5t-21 -45.5v-332zM408 -44q-7 17 2 36l591 1306q12 27 48 27h86q31 0 38 -17.5t-2 -35.5l-593 -1311q-10 -23 -37 -22h-95q-31 0 -38 17zM967 223v332q0 55 21.5 98t58 73t87 44t107.5 14t108.5 -14t90.5 -44t60.5 -73t21.5 -98v-332 q0 -57 -21.5 -100t-59.5 -71.5t-89.5 -43t-108.5 -14.5t-107.5 14.5t-88 43t-59 71.5t-21.5 100zM1171 223q0 -29 21.5 -43t48.5 -14q31 0 52.5 13.5t21.5 43.5v332q0 29 -21.5 44t-50.5 15t-50.5 -15t-21.5 -44v-332z" />
<glyph unicode="&#x26;" horiz-adv-x="1390" d="M80 410v446q0 82 31.5 149.5t88 115.5t133.5 75t167 27h422q16 0 30.5 -10.5t14.5 -32.5v-164q0 -43 -45 -43h-414q-59 0 -103.5 -34t-44.5 -83v-450q0 -25 5.5 -53.5t23 -53.5t53 -42t97.5 -17h86q61 0 98 17t57.5 42t26.5 53.5t6 53.5v110q-2 8 -8 17.5t-27 9.5h-172 q-33 0 -33 35v159q0 14 10.5 24.5t26.5 10.5h453q72 0 128 18.5t126 57.5q8 4 14 6t12 2q16 0 27 -18l68 -129q6 -12 6 -23q0 -12 -8.5 -21.5t-18.5 -17.5q-76 -53 -154.5 -72.5t-129.5 -27.5q-20 -4 -29.5 -11.5t-9.5 -37.5v-88q0 -82 -25 -159t-80 -135.5t-144 -93 t-220 -34.5h-74q-141 0 -232.5 34.5t-144.5 93t-73.5 135.5t-20.5 159z" />
<glyph unicode="'" horiz-adv-x="483" d="M139 856v369q0 23 15.5 31t31.5 8h119q16 0 30.5 -9.5t14.5 -27.5v-371q0 -23 -18.5 -30t-28.5 -7h-117q-16 0 -31.5 8.5t-15.5 28.5z" />
<glyph unicode="(" horiz-adv-x="772" d="M125 557q0 127 24.5 237.5t65.5 212t97.5 195.5t119.5 187q25 35 44.5 36.5t39.5 -8.5l109 -53q16 -8 24 -23.5t-6 -40.5q-98 -172 -169 -357t-71 -386q0 -98 18.5 -195.5t49.5 -187.5t69 -171t78 -148q27 -47 27 -72t-27 -41l-86 -51q-33 -18 -57 -12t-49 40 q-66 92 -121 188.5t-95 200t-62.5 215t-22.5 234.5z" />
<glyph unicode=")" horiz-adv-x="772" d="M125 1340.5q8 15.5 25 23.5l108 53q20 10 39.5 8t44.5 -36q63 -92 119.5 -186.5t97.5 -196t65.5 -212t24.5 -237.5q0 -123 -22.5 -234.5t-62.5 -215t-95 -199.5t-121 -189q-25 -35 -49.5 -41t-56.5 13l-86 51q-27 16 -27 40.5t27 72.5q39 68 77.5 148.5t69.5 170.5 t49.5 187.5t18.5 195.5q0 201 -71 386t-169 357q-14 25 -6 40.5z" />
<glyph unicode="*" horiz-adv-x="825" d="M68 1053l34 104q6 18 17.5 30.5t40.5 -1.5l162 -78q16 -10 12 10l-19 180q-2 16 6.5 29.5t34.5 13.5h111q20 0 34.5 -8t10.5 -39l-25 -178q-4 -14 13 -8l168 76q14 6 29.5 2t23.5 -29l35 -104q6 -20 3 -37t-34 -21l-174 -32q-16 -2 -4 -19l119 -133q10 -10 12 -26.5 t-19 -32.5l-90 -64q-16 -12 -32.5 -15t-30.5 25l-84 156q-4 10 -9 8t-10 -8l-90 -156q-8 -14 -22.5 -20t-36.5 10l-90 64q-16 12 -23.5 27.5t15.5 37.5l123 127q12 12 -3 17l-180 38q-16 4 -26.5 15.5t-1.5 38.5z" />
<glyph unicode="+" d="M78 535v86q0 51 51 51h244q18 0 27.5 6t9.5 29v245q0 23 15 35t40 12h113q25 0 40 -12t15 -35v-233q0 -27 6 -37t35 -10h258q51 0 51 -51v-86q0 -53 -51 -54h-258q-29 0 -35 -10t-6 -27v-241q0 -23 -15.5 -35t-39.5 -12h-113q-25 0 -40 12t-15 35v248q0 31 -48 30h-233 q-51 0 -51 54z" />
<glyph unicode="," horiz-adv-x="499" d="M94 -147l25 340q4 35 23.5 62.5t70.5 27.5h131q68 0 81 -30t-3 -77l-113 -352q-14 -43 -36.5 -55.5t-57.5 -12.5h-61q-25 0 -37.5 9.5t-17.5 23.5t-5 31.5v32.5z" />
<glyph unicode="-" horiz-adv-x="628" d="M70 401v138q0 35 43 34h401q41 0 41 -34v-138q0 -37 -41 -36h-401q-43 0 -43 36z" />
<glyph unicode="." horiz-adv-x="499" d="M90 141q0 66 48 110t114 44t113 -45t47 -109q0 -31 -13.5 -58.5t-35 -49t-50 -33.5t-61.5 -12q-68 0 -115 46t-47 107z" />
<glyph unicode="/" horiz-adv-x="690" d="M6 -113.5q-4 19.5 4 41.5l459 1411q10 29 27.5 36t54.5 7h78q35 0 42 -18t-1 -41l-463 -1417q-12 -39 -64 -39h-98q-35 0 -39 19.5z" />
<glyph unicode="0" d="M119 354v564q0 90 32.5 158.5t88 114.5t130 69.5t158.5 23.5q86 0 161 -23.5t131.5 -69.5t89 -114.5t32.5 -158.5v-564q0 -90 -32.5 -158.5t-89 -114.5t-131.5 -69.5t-159 -23.5q-86 0 -160.5 22.5t-130 68.5t-88 114.5t-32.5 160.5zM399 354q0 -55 40 -84.5t89 -29.5 q53 0 91 28.5t38 85.5v564q0 57 -36.5 86.5t-90.5 29.5q-53 0 -92 -29.5t-39 -86.5v-564z" />
<glyph unicode="1" d="M221 885v155q0 27 4 44.5t27 31.5l209 131q12 8 31.5 12.5t37.5 4.5h142q18 0 31.5 -10.5t13.5 -32.5v-1178q0 -43 -45 -43h-193q-47 0 -47 43v860q0 10 -5 18.5t-26 -1.5l-125 -66q-55 -29 -55 31z" />
<glyph unicode="2" d="M127 39v127q0 29 4 47t33 53l330 414q55 72 101 128t46 110q0 49 -34 82.5t-85 33.5q-59 0 -92 -18.5t-68 -59.5q-18 -20 -39.5 -31.5t-43.5 7.5l-95 76q-33 27 -41 44t15 46q78 109 168 147.5t213 38.5q78 0 147.5 -20.5t122.5 -62.5t85 -105.5t32 -149.5 q0 -51 -15.5 -98t-42 -92t-61.5 -90t-74 -95l-227 -284q-10 -14 -7 -24.5t25 -10.5h365q23 0 32 -12.5t9 -26.5v-172q0 -20 -12.5 -30.5t-26.5 -10.5h-731q-14 0 -23.5 12.5t-9.5 26.5z" />
<glyph unicode="3" d="M87 248.5q3 17.5 22 27.5l161 82q23 10 32 -1t20 -27q33 -45 71.5 -67.5t91.5 -22.5q66 0 105 32.5t39 81.5v70q0 47 -33 88t-98 41h-129q-45 0 -45 45v152q0 43 45 43h129q33 0 57.5 11t40.5 28.5t24.5 36t8.5 34.5v15q0 47 -36 81.5t-101 34.5q-43 0 -87.5 -20.5 t-72.5 -61.5q-16 -25 -34.5 -34t-41.5 6l-106 61q-31 16 -41.5 39t8.5 55q59 109 159.5 157t221.5 48q86 0 161.5 -21.5t132 -65.5t89 -110.5t32.5 -156.5q0 -33 -11 -69t-31.5 -68.5t-49 -58t-61.5 -38.5q-8 -4 -7 -9t7 -7q35 -12 63.5 -38t48 -57.5t30.5 -65.5t11 -62v-86 q0 -88 -29.5 -159t-85 -121t-132 -76.5t-168.5 -26.5q-66 0 -122.5 9t-106.5 33.5t-93 68.5t-82 114q-10 18 -7 35.5z" />
<glyph unicode="4" d="M61 317v111q0 35 5.5 54.5t13.5 35.5l342 705q10 23 27.5 32t46.5 9h180q18 0 27.5 -7.5t12.5 -16.5t1 -18.5t-4 -13.5l-322 -676q-4 -6 -4 -14t16 -8h136q16 0 24 12.5t8 30.5v188q0 10 4.5 20.5t24.5 10.5h221q20 0 26.5 -11t6.5 -22v-188q0 -27 9 -34t26 -7h84 q10 0 20.5 -4t10.5 -25v-184q0 -23 -10.5 -27t-20.5 -4h-86q-12 0 -22.5 -8t-10.5 -27v-200q0 -10 -6 -20.5t-23 -10.5h-223q-20 0 -25.5 9t-5.5 20v209q0 29 -36 28h-422q-16 0 -34 10.5t-18 40.5z" />
<glyph unicode="5" d="M108 248.5q3 17.5 21 27.5l162 82q23 10 32 -1t19 -27q33 -45 72 -67.5t92 -22.5q66 0 104.5 32.5t38.5 81.5v142q0 47 -34.5 81.5t-96.5 34.5q-41 0 -66.5 -10t-47 -19.5t-42 -12.5t-47.5 12l-102 51q-23 10 -36 28.5t-13 43.5v516q0 43 47 43h637q18 0 31.5 -10.5 t13.5 -32.5v-164q0 -43 -45 -43h-369q-31 0 -30 -25v-129q0 -16 4 -17t20 5q14 6 41 11t43 5q90 0 160.5 -27.5t119 -76.5t73 -117t24.5 -147v-125q0 -88 -30 -159t-85 -121t-132 -76.5t-169 -26.5q-66 0 -122 9t-106 33.5t-93 68.5t-82 114q-10 18 -7 35.5z" />
<glyph unicode="6" d="M109 354v564q0 82 30.5 149.5t85 115.5t130 74.5t165.5 26.5q72 0 141.5 -13.5t131.5 -53.5q31 -20 56 -46t42.5 -51.5t28 -48t10.5 -39.5q0 -16 -8.5 -24.5t-18.5 -12.5l-160 -77q-29 -14 -39 0t-24 34q-31 45 -65.5 63.5t-94.5 18.5q-55 0 -92 -35.5t-37 -87.5v-73 q0 -18 9.5 -23.5t31.5 4.5q8 4 24.5 8t34 8.5t34 6.5t26.5 2q82 0 154.5 -24.5t127 -73t86 -116t31.5 -153.5v-123q0 -92 -33.5 -160.5t-91 -114.5t-133.5 -68.5t-160 -22.5q-90 0 -167.5 26.5t-135 74.5t-89 115.5t-31.5 149.5zM391 354q0 -55 41 -84.5t90 -29.5 q143 0 144 114v123q0 55 -41 85t-101 30q-49 0 -91 -33t-42 -82v-123z" />
<glyph unicode="7" d="M133 918v303q0 43 45 43h731q29 0 48.5 -12.5t19.5 -47.5v-74q0 -18 -6 -43.5t-17 -44.5q-23 -47 -59.5 -123.5t-81.5 -169t-94 -194.5t-95 -198.5t-87 -181.5t-68 -142q-4 -10 -14.5 -21.5t-32.5 -11.5h-225q-23 0 -35 15.5t-2 37.5q90 188 172 361q35 74 71.5 151.5 t72.5 152.5t66.5 140.5t53.5 114.5q4 10 1 24.5t-26 14.5h-143q-29 0 -40 -9.5t-11 -25.5v-59q0 -45 -45 -46h-154q-45 0 -45 46z" />
<glyph unicode="8" d="M100 381q0 86 41 164t103 112q14 10 -2 21q-66 45 -94.5 110.5t-28.5 120.5q0 84 32.5 152.5t89 118t130 77t155.5 27.5q84 0 159 -25.5t131 -73.5t89 -118t33 -156q0 -61 -33 -126.5t-84 -100.5q-10 -8 -8 -15t10 -12q57 -39 93 -109.5t36 -154.5q0 -102 -34.5 -178 t-93 -126t-135.5 -75.5t-163 -25.5q-80 0 -155.5 23.5t-136 71.5t-97.5 122t-37 176zM373 395q0 -76 43 -120t108 -44q70 0 112 47.5t42 114.5q0 61 -43 108.5t-111 47.5q-61 0 -106 -46t-45 -108zM383 911q0 -53 39 -94t104 -41q72 0 109 39t37 98q0 53 -37 92t-109 39 q-59 0 -101 -39.5t-42 -93.5z" />
<glyph unicode="9" d="M88 803v86q0 92 32 165.5t88 124t134 78t168 27.5q119 0 200 -31.5t130 -87t69.5 -128t20.5 -154.5v-488q0 -98 -33 -174t-89 -128t-134 -78.5t-168 -26.5q-72 0 -141.5 13t-131.5 54q-31 20 -56 46t-42.5 51.5t-28 48t-10.5 39.5q0 16 8.5 24t18.5 12l160 78q29 14 39 0 t24 -35q31 -45 65.5 -63t94.5 -18q20 0 46 8t46 24.5t34.5 44t14.5 68.5v59q0 18 -9 23.5t-32 -4.5q-8 -4 -24.5 -8t-34 -8.5t-34.5 -6.5t-26 -2q-82 0 -154.5 24.5t-126.5 73t-86 116t-32 153.5zM369 803q0 -55 41 -85t100 -30q49 0 91 33t42 82v104q0 55 -41 90t-90 35 q-53 0 -98 -34.5t-45 -90.5v-104z" />
<glyph unicode=":" horiz-adv-x="499" d="M90 141q0 66 48 110t114 44t113 -45t47 -109q0 -31 -13.5 -58.5t-35 -49t-50 -33.5t-61.5 -12q-68 0 -115 46t-47 107zM90 674q0 66 48 109.5t114 43.5t113 -45t47 -108q0 -31 -13.5 -58.5t-35 -49t-50 -34t-61.5 -12.5q-68 0 -115 46t-47 108z" />
<glyph unicode=";" horiz-adv-x="499" d="M78 -143l18 336q2 39 22.5 67.5t71.5 28.5h132q68 0 80 -32t-3 -79l-104 -350q-14 -47 -38 -59.5t-58 -12.5h-62q-25 0 -37 10.5t-17 24.5t-5 31.5v34.5zM88 670q0 61 47 106t115 45q66 0 113 -45t47 -106q0 -63 -47 -107.5t-113 -44.5q-68 0 -115 44t-47 108z" />
<glyph unicode="&#x3c;" d="M104 526v88q0 23 9.5 40.5t44.5 37.5l753 422q20 10 33.5 2t13.5 -29v-147q0 -29 -5 -45t-23 -27l-502 -276q-16 -8 -15 -20.5t15 -20.5l496 -272q27 -14 29.5 -26.5t2.5 -29.5v-162q0 -23 -12 -30.5t-31 2.5l-757 416q-31 16 -41.5 35.5t-10.5 41.5z" />
<glyph unicode="=" d="M78 334v96q0 45 49 45h807q49 0 49 -45v-94q0 -51 -49 -51h-807q-49 0 -49 49zM78 713v96q0 45 49 45h807q49 0 49 -45v-94q0 -51 -49 -51h-807q-49 0 -49 49z" />
<glyph unicode="&#x3e;" d="M104 881v147q0 20 13.5 28.5t34.5 -1.5l753 -422q35 -20 44 -37.5t9 -40.5v-88q0 -23 -10 -42t-41 -36l-757 -416q-18 -10 -31 -1.5t-13 30.5v162q0 16 3.5 28.5t29.5 26.5l496 273q14 8 15 20t-15 20l-502 277q-18 10 -23.5 26.5t-5.5 45.5z" />
<glyph unicode="?" d="M174 1035.5q-2 17.5 14 43.5q37 61 77 101.5t86 63t100.5 31.5t119.5 9q193 0 298.5 -94t105.5 -260q0 -53 -20.5 -102.5t-51.5 -91.5t-66.5 -75t-64.5 -51q-29 -16 -59.5 -34.5t-57 -41t-44 -50t-17.5 -62.5q0 -16 -8 -29.5t-37 -13.5h-187q-29 0 -40 10t-11 41v43 q0 82 50.5 155.5t142.5 133.5q27 16 56.5 35.5t54 40t40 43t15.5 47.5q0 61 -35 83.5t-84 22.5q-37 0 -62.5 -10t-43 -23.5t-28.5 -29t-20 -27.5q-10 -16 -28.5 -24.5t-40.5 4.5l-129 80q-23 14 -25 31.5zM285 141q0 66 48 110t113 44q66 0 113 -44t47 -110q0 -61 -47 -107 t-113 -46q-68 0 -114.5 46t-46.5 107z" />
<glyph unicode="@" horiz-adv-x="1452" d="M72 598q0 141 51 262t141 210t216 140.5t274 51.5q137 0 253.5 -43t202.5 -120t135.5 -183.5t49.5 -233.5q0 -121 -28 -205t-73 -136t-102 -75.5t-117 -23.5q-74 0 -118 20.5t-66 52.5q-4 8 -14 9q-4 0 -13 -9q-25 -35 -72 -53t-87 -18q-123 0 -189.5 60.5t-66.5 164.5 t61 174t184 70q55 0 105 -29q8 -4 10 -4q6 0 6 8v25q0 72 -102 71q-37 0 -72 -10l-70 -20q-23 -8 -31 -1t-12 17l-22 70q-10 25 12 37q20 14 50 23t62 15.5t60.5 8.5t50.5 2q137 0 201 -70t64 -172v-178q0 -45 20.5 -75t73.5 -30q23 0 47 11.5t43.5 41t33 83t13.5 139.5 q0 104 -44 187t-112.5 139.5t-153.5 86t-167 29.5q-115 0 -211 -40t-167 -110.5t-111 -164.5t-40 -205t38 -207t109 -166.5t169 -111.5t219 -41q156 0 317 63q16 8 31 8q25 0 35 -28l20 -54q6 -16 7 -26q0 -31 -45.5 -51.5t-107.5 -33.5t-131 -19.5t-116 -6.5 q-158 0 -288 46t-222 134.5t-143 212t-51 281.5zM623 485q0 -35 23.5 -59.5t62.5 -24.5q41 0 63.5 26.5t22.5 57.5q0 35 -25 59.5t-61 24.5q-39 0 -62.5 -24.5t-23.5 -59.5z" />
<glyph unicode="A" horiz-adv-x="1038" d="M22 34q2 9 5 17l295 1180q12 35 51 35h291q16 0 30.5 -4.5t20.5 -30.5l301 -1180q2 -5 2 -12q0 -9 -3 -19q-5 -20 -42 -20h-207q-18 0 -32.5 9t-18.5 28l-31 145q-6 29 -14 38t-29 9h-244q-27 0 -32 -12t-11 -31l-30 -149q-4 -20 -20.5 -28.5t-31.5 -8.5h-204 q-20 0 -30 5t-14 13q-2 4 -3 9q0 3 1 7zM430 492q-2 -20 21 -21h141q10 0 15 5q3 3 3 9q0 5 -2 13l-43 202l-41 211q-2 9 -8 11q-1 0 -1 1q-5 0 -7 -12l-39 -211z" />
<glyph unicode="B" horiz-adv-x="1140" d="M135 49v1168q0 49 51 49h461q178 0 279.5 -87t101.5 -251q0 -33 -10 -69t-29.5 -69.5t-46.5 -62.5t-57 -47q-10 -6 2 -10q100 -37 143 -117t43 -162q0 -178 -107.5 -284.5t-306.5 -106.5h-473q-51 0 -51 49zM428 299q0 -23 8 -30t37 -7h182q55 0 85 41t30 88 q0 53 -28.5 98.5t-100.5 45.5h-170q-29 0 -36 -10.5t-7 -32.5v-193zM428 836q0 -47 37 -48h170q45 0 70.5 32t25.5 81q0 51 -28.5 78t-71.5 27h-170q-20 0 -26.5 -9.5t-6.5 -25.5v-135z" />
<glyph unicode="C" horiz-adv-x="1054" d="M123 371v536q0 82 31.5 151.5t88 121t134.5 79t168 27.5q57 0 114.5 -9t110.5 -33.5t100.5 -67.5t85.5 -109q6 -12 6.5 -30.5t-20.5 -30.5l-147 -103q-27 -10 -42.5 -2t-25.5 27q-31 53 -72 76.5t-94 23.5q-39 0 -66.5 -12t-46 -31.5t-26.5 -44.5t-8 -47v-522 q0 -45 32.5 -83t108.5 -38q51 0 95 26.5t75 69.5q10 10 22.5 25.5t34.5 3.5l166 -88q23 -9 31 -25q3 -6 3 -14q0 -11 -7 -23q-80 -135 -189.5 -186t-240.5 -51q-98 0 -176 28.5t-133.5 78.5t-84 121t-28.5 155z" />
<glyph unicode="D" horiz-adv-x="1155" d="M135 49v1168q0 49 51 49h461q205 0 299 -104.5t94 -282.5v-494q0 -84 -22.5 -154.5t-69.5 -122t-118.5 -80t-170.5 -28.5h-473q-51 0 -51 49zM428 313q0 -29 10.5 -40t40.5 -11h127q78 0 110 41t32 111v444q0 80 -36 114t-110 34h-123q-35 0 -43 -15.5t-8 -38.5v-639z " />
<glyph unicode="E" horiz-adv-x="1015" d="M127 49v1168q0 49 49 49h705q41 0 41 -45v-166q0 -49 -41 -49h-414q-31 0 -40 -9.5t-9 -29.5v-140q0 -29 10 -40t41 -11h340q25 0 34 -13t9 -36v-162q0 -23 -9 -36t-34 -13h-346q-29 0 -37 -10t-8 -33v-166q0 -29 13 -37t46 -8h420q41 0 41 -47v-166q0 -49 -41 -49h-721 q-49 0 -49 49z" />
<glyph unicode="F" horiz-adv-x="974" d="M135 49v1168q0 49 49 49h719q18 0 30.5 -10.5t12.5 -34.5v-166q0 -49 -43 -49h-436q-27 0 -34 -10.5t-7 -24.5v-158q0 -23 7 -32t34 -9h348q45 0 45 -45v-166q0 -49 -45 -49h-346q-25 0 -34 -11.5t-9 -39.5v-412q0 -49 -49 -49h-193q-49 0 -49 49z" />
<glyph unicode="G" horiz-adv-x="1112" d="M125 358v557q0 82 31.5 151t88 118t134.5 75.5t168 26.5q61 0 120.5 -8t115 -31.5t104.5 -65.5t90 -112q6 -12 6 -30.5t-20 -30.5l-150 -103q-27 -10 -40 -1t-28 26q-35 43 -76.5 69.5t-107.5 26.5q-55 0 -100 -36t-45 -89v-534q0 -53 44 -85t107 -32q61 0 108.5 36 t47.5 101v68q0 29 -29 28h-71q-45 0 -45 41v162q0 45 45 45h333q53 0 54 -45v-319q0 -94 -35 -165t-96.5 -119t-142.5 -71.5t-173 -23.5q-96 0 -176 26.5t-138.5 74.5t-91 116.5t-32.5 152.5z" />
<glyph unicode="H" horiz-adv-x="1196" d="M131 41v1186q0 23 13.5 31t37.5 8h191q23 0 37 -7.5t14 -31.5v-393q0 -33 7 -43.5t36 -10.5h264q29 0 37 11.5t8 42.5v393q0 23 13.5 31t37.5 8h189q25 0 38 -8.5t13 -30.5v-1186q0 -41 -51 -41h-189q-51 0 -51 41v428q0 23 -11 37t-40 14h-248q-37 0 -45 -13t-8 -36 v-430q0 -41 -51 -41h-191q-51 0 -51 41z" />
<glyph unicode="I" horiz-adv-x="559" d="M133 41v1182q0 43 49 43h193q20 0 34.5 -9.5t14.5 -33.5v-1182q0 -41 -49 -41h-193q-49 0 -49 41z" />
<glyph unicode="J" horiz-adv-x="716" d="M4 -184q-2 6 -2 12q0 9 4 16q6 11 29 21q68 31 109.5 62.5t63 69.5t29 83t7.5 98v1057q0 31 32 31h226q16 0 24.5 -9.5t8.5 -21.5v-1112q0 -92 -21.5 -174t-70 -147.5t-127 -112.5t-195.5 -74q-9 -2 -20 -2q-8 0 -17 1q-21 3 -25 26z" />
<glyph unicode="K" horiz-adv-x="1165" d="M133 45v1176q0 45 47 45h199q18 0 30.5 -11.5t12.5 -33.5v-342q0 -16 8 -14.5t16 9.5l287 357q20 23 31.5 28t50.5 5h232q18 0 24 -14q2 -4 2 -9q0 -10 -10 -22l-336 -428q-10 -10 -10 -18.5t14 -8.5q12 -2 27.5 -3t27.5 -5q68 -16 113 -48t72.5 -75t39 -97.5 t15.5 -115.5l21 -375q2 -45 -37 -45h-211q-23 0 -31 11.5t-10 33.5l-25 371q-4 68 -41 106.5t-110 38.5q-68 0 -112 -44t-44 -101l-4 -371q0 -45 -39 -45h-213q-23 0 -30 11.5t-7 33.5z" />
<glyph unicode="L" horiz-adv-x="974" d="M135 49v1178q0 23 13.5 31t35.5 8h193q23 0 36 -7.5t13 -31.5v-918q0 -23 5 -35t34 -12h442q18 0 28.5 -9t10.5 -34v-170q0 -49 -39 -49h-723q-49 0 -49 49z" />
<glyph unicode="M" horiz-adv-x="1431" d="M121 45v1176q0 45 51 45h174q23 0 42.5 -4.5t35.5 -38.5q41 -96 84 -206t84 -204l121 -313q8 -20 18 2l121 311l170 410q8 20 28.5 31.5t49.5 11.5h157q53 0 54 -45v-1176q0 -45 -54 -45h-182q-23 0 -36 7t-13 30v514q0 2 -10 -2q-20 -51 -40 -105.5t-40 -103.5 l-105 -264q-10 -23 -22 -33t-35 -10h-108q-25 0 -40.5 3t-29.5 32l-100 268l-76 209q-4 4 -8 5t-4 -3v-510q0 -23 -13.5 -30t-38.5 -7h-184q-51 0 -51 45z" />
<glyph unicode="N" horiz-adv-x="1185" d="M131 39v1182q0 45 51 45h133q33 0 47.5 -8.5t30.5 -34.5l371 -613v2q4 -6 7 -4t3 8v607q0 43 51 43h179q23 0 37 -9.5t14 -33.5v-1178q0 -45 -51 -45h-130q-25 0 -42 3t-33 32l-377 608q-2 4 -4 2t-2 -6v-600q0 -23 -14.5 -31t-39.5 -8h-180q-25 0 -38 8t-13 31z" />
<glyph unicode="O" horiz-adv-x="1146" d="M123 383v504q0 92 33.5 165.5t93 126t141.5 80t180 27.5q96 0 179.5 -27.5t143.5 -80t95 -126t35 -165.5v-504q0 -92 -34 -165t-94 -124t-143 -78.5t-180 -27.5q-96 0 -178 27.5t-142 78.5t-95 124t-35 165zM414 383q0 -51 40 -92t117 -41q72 0 115 40t43 93v504 q0 53 -35 96t-121 43q-78 0 -118.5 -43t-40.5 -96v-504z" />
<glyph unicode="P" horiz-adv-x="1050" d="M125 43v1180q0 43 51 43h412q92 0 166.5 -28t128 -79t82 -121.5t28.5 -158.5q0 -80 -29.5 -147.5t-83 -117t-128 -76t-164.5 -26.5h-137q-20 0 -26.5 -8t-6.5 -23v-438q0 -43 -51 -43h-191q-51 0 -51 43zM418 817q0 -27 9 -36t28 -9h133q51 0 82.5 34t31.5 81 q0 51 -31.5 85t-82.5 34h-133q-27 0 -32 -13.5t-5 -29.5v-146z" />
<glyph unicode="Q" horiz-adv-x="1146" d="M123 383v504q0 92 33.5 165.5t93 126t141.5 80t180 27.5q96 0 179.5 -27.5t143.5 -80t95 -126t35 -165.5v-504q0 -74 -23.5 -136.5t-66.5 -110.5t-101.5 -82t-127.5 -50q-10 -4 -15.5 -8t-3.5 -19q6 -41 22.5 -49t39.5 -8q12 0 41.5 5t68.5 16q16 4 25.5 0t13.5 -23 l33 -119q4 -14 2 -22t-19 -19q-47 -31 -111.5 -42t-113.5 -11q-125 0 -187.5 71.5t-62.5 205.5q0 27 -22 28q-131 33 -212 132.5t-81 240.5zM414 383q0 -51 40 -92t117 -41q72 0 115 40t43 93v504q0 53 -33.5 96t-122.5 43q-78 0 -118.5 -43t-40.5 -96v-504z" />
<glyph unicode="R" horiz-adv-x="1110" d="M129 41v1176q0 23 9 36t34 13h451q88 0 161.5 -24.5t127 -73t83 -119t29.5 -164.5q0 -106 -47 -197.5t-121 -163.5q-10 -14 -10 -22t8 -27l199 -428q4 -9 4 -17q0 -6 -3 -14q-7 -16 -36 -16h-205q-49 0 -64.5 15.5t-25.5 35.5l-166 387q-4 14 -27 15h-88q-20 0 -20 -23 v-389q0 -41 -51 -41h-191q-51 0 -51 41zM422 754q0 -16 8 -28.5t37 -12.5h139q10 0 26.5 4t24.5 12q45 39 59.5 81t14.5 69q0 35 -11 58.5t-29.5 38.5t-41 22.5t-43.5 7.5h-139q-29 0 -37 -10.5t-8 -34.5v-207z" />
<glyph unicode="S" horiz-adv-x="1069" d="M73 187q0 18 21 46l80 111q27 33 45.5 29t40.5 -21q31 -23 70 -42t77.5 -33.5t74.5 -21.5t61 -7q51 0 82.5 10t48 26.5t21.5 36t5 35.5q0 68 -78.5 111t-220.5 90q-57 18 -109 47t-91 71t-61.5 98t-22.5 132q0 86 33.5 155.5t91 119t134.5 76t163 26.5q129 0 217 -26.5 t147 -63.5q25 -16 30 -29.5t-15 -52.5l-60 -119q-17 -32 -45 -32q-12 0 -27 6q-47 20 -114.5 41.5t-124.5 21.5q-53 0 -97 -24.5t-44 -88.5q0 -33 20 -57t49 -40.5t61.5 -28t55.5 -19.5q63 -23 135 -49.5t131.5 -70.5t99 -109.5t39.5 -163.5q0 -96 -35.5 -168t-96 -121 t-141.5 -73.5t-171 -24.5q-111 0 -227.5 32.5t-219.5 118.5q-33 26 -33 46z" />
<glyph unicode="T" horiz-adv-x="950" d="M41 1055v162q0 23 9 36t34 13h786q39 0 39 -49v-162q0 -23 -7 -36t-32 -13h-213q-29 0 -37 -10.5t-8 -26.5l-4 -928q0 -41 -51 -41h-190q-23 0 -36.5 9t-13.5 32l2 926q0 18 -6 28.5t-37 10.5h-192q-25 0 -34 13t-9 36z" />
<glyph unicode="U" horiz-adv-x="1146" d="M123 383v844q0 23 13.5 31t37.5 8h188q23 0 37.5 -7.5t14.5 -31.5v-844q0 -51 40 -92t117 -41q72 0 115 40t43 93l-2 844q0 23 14.5 31t36.5 8h193q25 0 39 -8.5t14 -30.5v-844q0 -92 -34 -165t-94 -124t-143 -78.5t-180 -27.5q-96 0 -178 27.5t-142 78.5t-95 124 t-35 165z" />
<glyph unicode="V" horiz-adv-x="1052" d="M25 1214q-1 6 -1 12q0 11 4 22q7 18 48 18h200q18 0 33 -4.5t19 -26.5l116 -459l82 -334q2 -6 8.5 -7t8.5 7l78 332l110 461q6 23 20.5 27t30.5 4h197q41 0 47 -18q4 -10 4 -20q0 -7 -2 -14l-328 -1169q-12 -45 -69 -45h-211q-25 0 -40 6t-26 35z" />
<glyph unicode="W" horiz-adv-x="1581" d="M28 1233q0 6 2 12q3 8 13 14.5t31 6.5h205q18 0 32.5 -8.5t18.5 -28.5l82 -451l45 -299v2q2 -6 6 -5t6 5l66 299l110 447q4 16 13.5 27.5t37.5 11.5h183q16 0 29.5 -7.5t19.5 -29.5l119 -467l61 -281q2 -4 8 -5t8 5v-2l41 289l76 461q4 20 18.5 28.5t32.5 8.5h197 q41 0 47 -16q4 -10 4 -20q0 -6 -2 -13l-258 -1176q-6 -27 -21.5 -34t-50.5 -7h-178q-27 0 -43 4t-24 33l-86 379l-82 340q-2 6 -8.5 7t-6.5 -3l-82 -344l-90 -375q-10 -41 -71 -41h-179q-27 0 -43 4t-24 33l-262 1180z" />
<glyph unicode="X" horiz-adv-x="1042" d="M16 27q0 19 13 43l301 546q18 33 18 54q0 23 -20 57l-265 479q-14 25 -7 42.5t38 17.5h225q23 0 43.5 -9.5t30.5 -33.5l121 -260q10 -25 25 2l120 258q23 43 74 43h219q35 0 36 -19.5t-13 -44.5l-258 -487q-10 -23 -12.5 -42.5t14.5 -47.5l313 -568q7 -13 7 -24 q0 -8 -4 -16q-9 -17 -42 -17h-215q-27 0 -42 7t-31 36l-164 344q-6 12 -12.5 14t-16.5 -14l-164 -344q-16 -29 -31.5 -36t-42.5 -7h-215q-43 2 -43 27z" />
<glyph unicode="Y" horiz-adv-x="1011" d="M63 1266h205q29 0 46.5 -7.5t31.5 -37.5l150 -412q4 -8 10 -7t8 5l148 410q10 25 25 37t54 12h193q41 0 47 -20q3 -9 3 -17.5t-3 -16.5l-315 -725q-10 -20 -13.5 -31.5t-3.5 -27.5v-379q0 -49 -49 -49h-192q-49 0 -50 49v385q0 10 -2 21.5t-10 27.5l-317 727q-7 16 -7 32 q0 22 41 24z" />
<glyph unicode="Z" horiz-adv-x="946" d="M55 74v53q0 20 7.5 45t17.5 41q98 188 210.5 384t213.5 384q4 8 1 16.5t-20 8.5h-342q-41 0 -41 49v172q0 23 12.5 31t35.5 8h657q63 0 63 -56v-86q0 -29 -9 -52t-19 -42q-47 -86 -99.5 -180t-105.5 -189.5t-106.5 -189.5t-100.5 -180q-8 -14 -5 -21.5t13 -7.5h414 q20 0 31.5 -9t11.5 -34v-176q0 -43 -43 -43h-717q-47 0 -63.5 20.5t-16.5 53.5z" />
<glyph unicode="[" horiz-adv-x="772" d="M158 -262v1653q0 45 45 45h364q45 0 45 -45v-146q0 -43 -45 -43h-80q-29 0 -39 -16.5t-10 -38.5v-1167q0 -29 10.5 -40.5t38.5 -11.5h80q18 0 31.5 -11t13.5 -34v-145q0 -43 -45 -43h-364q-45 0 -45 43z" />
<glyph unicode="\" horiz-adv-x="690" d="M9 1364q7 18 42 18h78q37 0 54.5 -7t27.5 -36l459 -1411q8 -23 4 -42t-39 -19h-98q-51 0 -64 39l-463 1417q-8 23 -1 41z" />
<glyph unicode="]" horiz-adv-x="772" d="M104 -117q0 23 14.5 34t33.5 11h79q29 0 39.5 11.5t10.5 40.5l-2 1167q0 23 -9.5 39t-38.5 16h-79q-47 0 -48 43v146q0 45 48 45h364q45 0 45 -45v-1653q0 -43 -45 -43h-364q-47 0 -48 43v145z" />
<glyph unicode="^" horiz-adv-x="1200" d="M154 793q0 18 18 43l313 409q12 16 29.5 27.5t52.5 11.5h66q33 0 53.5 -12t36.5 -35l303 -387q18 -23 18 -47q0 -27 -28 -49l-49 -35q-16 -14 -37 -14q-20 0 -39 14t-37 33l-236 237q-14 14 -26 15q-10 0 -19 -11l-247 -268q-29 -31 -54 -31q-14 0 -41 17l-51 39 q-27 20 -26 43z" />
<glyph unicode="_" horiz-adv-x="1024" d="M-43 -215q0 35 45 35h1016q45 0 45 -35v-131q0 -35 -45 -35h-1016q-45 0 -45 35v131z" />
<glyph unicode="`" horiz-adv-x="964" d="M301 1331q0 20 21 31l155 76q12 4 21 4q27 0 39 -21l198 -323q6 -12 6 -23q0 -16 -20 -28l-78 -43q-20 -10 -35 -11q-14 0 -24 11l-271 296q-12 12 -12 31z" />
<glyph unicode="a" horiz-adv-x="991" d="M82 305q0 70 22.5 129.5t66.5 102.5t107.5 67.5t143.5 24.5q41 0 83 -9t81 -34q4 -4 12 -4q10 0 10 12v31q0 16 -5 32.5t-21.5 30.5t-45 22.5t-75.5 8.5t-91 -6t-98 -25q-33 -10 -43 -7t-16 21l-35 129q-2 10 -2 18q0 27 25 38q135 55 315 55q209 0 295 -99.5t86 -279.5 v-526q0 -37 -35 -37h-207q-10 0 -19 7t-9 24v8q0 18 -11 18q-6 0 -16 -8q-47 -37 -92 -49t-98 -12q-78 0 -138.5 23.5t-102.5 65.5t-64.5 100.5t-22.5 127.5zM342 315q0 -49 32 -82.5t91 -33.5q55 0 89 32.5t34 83.5q0 49 -32 83t-91 34q-55 0 -89 -33t-34 -84z" />
<glyph unicode="b" horiz-adv-x="993" d="M111 43v1219q0 43 47 43h190q18 0 31.5 -10.5t13.5 -32.5v-351q0 -20 39 0q33 16 72 22.5t67 6.5q92 0 158 -26.5t108 -74.5t60 -114t18 -145v-226q0 -70 -19 -136t-60 -117.5t-102.5 -82t-147.5 -30.5q-31 0 -77 9t-73 32q-10 8 -16 13t-12 5q-12 0 -17 -10 q-8 -14 -15 -25.5t-26 -11.5h-192q-47 0 -47 43zM393 354q0 -47 29 -80.5t92 -33.5q59 0 89 32.5t30 81.5v226q0 49 -27.5 81.5t-91.5 32.5q-57 0 -89 -32.5t-32 -81.5v-226z" />
<glyph unicode="c" horiz-adv-x="903" d="M78 350v228q0 82 28.5 148.5t82 113.5t128 73.5t166.5 26.5q145 0 231.5 -57.5t139.5 -163.5q4 -8 4 -21q0 -10 -5 -23t-19 -20l-140 -77q-33 -16 -51 2t-33 41q-27 43 -61.5 57t-65.5 14q-53 0 -87 -33.5t-34 -80.5v-228q0 -47 34 -80.5t87 -33.5q27 0 50.5 10t43 25.5 t33 33t23.5 29.5q8 10 15 17t20 7q12 0 26 -8l150 -71q28 -14 28 -35q0 -14 -6 -29q-53 -113 -152.5 -170t-230.5 -57q-92 0 -166.5 25.5t-128 73.5t-82 114.5t-28.5 148.5z" />
<glyph unicode="d" horiz-adv-x="993" d="M84 326v254q0 80 22.5 145.5t67.5 113.5t111.5 74.5t156.5 26.5q29 0 66 -6t59 -23q18 -12 29 -12q10 0 10 12v351q0 23 13.5 33t31.5 10h191q47 0 47 -43v-1219q0 -43 -47 -43h-193q-18 0 -25.5 11.5t-15.5 25.5q-6 10 -16 10q-6 0 -12.5 -5t-16.5 -13 q-29 -23 -71.5 -32t-77.5 -9q-92 0 -155.5 28.5t-101.5 76.5t-55.5 108.5t-17.5 124.5zM367 354q0 -49 30.5 -81.5t87.5 -32.5q59 0 90 33.5t31 80.5v226q0 49 -30.5 81.5t-90.5 32.5q-53 0 -85.5 -32.5t-32.5 -81.5v-226z" />
<glyph unicode="e" horiz-adv-x="976" d="M86 350v228q0 82 29.5 148.5t83 113.5t128 73.5t165.5 26.5q182 0 291.5 -96t109.5 -266v-99q0 -33 -18.5 -52t-53.5 -19h-407q-27 0 -35 -11.5t-8 -23.5v-23q0 -47 33.5 -80.5t87.5 -33.5q59 0 97 29.5t60 53.5q8 8 14.5 16.5t16.5 8.5t27 -10l122 -78 q16 -10 28.5 -21.5t12.5 -27.5q0 -12 -8 -27q-53 -96 -147 -144t-223 -48q-92 0 -167 25.5t-128.5 73.5t-82 114.5t-28.5 148.5zM375 602q0 -24 36 -24h3h172q30 0 30 26q0 17 -8 33q-12 23 -41.5 42t-74.5 19q-41 0 -70 -20.5t-39 -44.5q-8 -16 -8 -31z" />
<glyph unicode="f" horiz-adv-x="706" d="M20 741v136q0 43 48 43h61q27 0 27 24v88q0 57 20.5 108.5t60 90.5t97 61.5t133.5 22.5q51 0 97 -6t73 -13q16 -4 37 -17q17 -10 17 -34q0 -6 -1 -14l-24 -144q-8 -40 -46 -40h-2q-18 0 -38 6q-14 4 -39 7t-35 3q-27 0 -48.5 -16.5t-21.5 -57.5v-47q0 -10 5 -16t22 -6 h145q45 0 45 -43v-136q0 -43 -45 -43h-133q-29 0 -34 -12t-5 -22v-621q0 -43 -45 -43h-192q-45 0 -45 43v621q0 14 -7.5 24t-23.5 10h-55q-47 0 -48 43z" />
<glyph unicode="g" horiz-adv-x="1028" d="M57 94q0 23 9.5 50.5t27 55t40 51t48.5 40.5q10 4 7 12t-9 14q-104 100 -104 261q0 76 32.5 142t87 114.5t125 76t148.5 27.5q131 0 238 -66q14 -8 28.5 -6t24.5 8q55 35 110.5 48.5t104.5 13.5q23 0 30 -9t7 -28v-145q0 -14 -5.5 -22.5t-23.5 -8.5q-16 0 -37.5 2 t-32.5 2h-13t-15 -2q-14 -2 -22.5 -10t-4.5 -25q20 -57 21 -112q0 -76 -32 -142.5t-87 -116t-130 -78t-161 -28.5q-8 0 -21.5 1t-29.5 3q-20 2 -25.5 4t-21.5 -12q-12 -12 -18.5 -21.5t-14.5 -19.5q-14 -25 12 -21q41 4 83 7.5t87 3.5q84 0 165 -16.5t144.5 -51.5t102.5 -92 t39 -137q0 -47 -18.5 -90t-48.5 -80t-67.5 -67t-76.5 -48q-23 -10 -50 -20q-8 -4 -15 -4q-15 0 -25 16l-84 129q-8 13 -8 25q0 26 36 47q6 2 18.5 9t24 16t20.5 21.5t9 28.5q0 20 -13.5 32.5t-36 20t-51 10.5t-59.5 3q-33 0 -75.5 -3t-90 -7t-93.5 -9.5t-83 -11.5 q-35 -4 -53 4t-31 25q-12 14 -20 37.5t-13.5 50.5t-7.5 52.5t-2 45.5zM340 565q0 -53 39 -90t98 -37q55 0 94 37t39 90t-39 90t-94 37q-59 0 -98 -37t-39 -90z" />
<glyph unicode="h" horiz-adv-x="1009" d="M109 43v1219q0 43 45 43h190q18 0 32.5 -10.5t14.5 -32.5v-342q0 -14 7.5 -18.5t31.5 7.5q31 16 78 23.5t74 7.5q94 0 157.5 -27.5t102.5 -77t56 -116t17 -141.5l3 -535q0 -43 -46 -43h-194q-23 0 -36 11.5t-13 31.5v535q0 49 -29 80.5t-90 31.5q-59 0 -88 -38t-29 -85 v-524q0 -43 -47 -43h-192q-45 0 -45 43z" />
<glyph unicode="i" horiz-adv-x="499" d="M88 1161q0 66 47 110t115 44q66 0 113 -45.5t47 -108.5q0 -31 -13.5 -58.5t-35 -49t-50 -33.5t-61.5 -12q-68 0 -115 45t-47 108zM109 43v834q0 45 45 45h190q18 0 32.5 -11.5t14.5 -33.5v-834q0 -43 -47 -43h-190q-45 0 -45 43z" />
<glyph unicode="j" horiz-adv-x="499" d="M-115 -303l25 143q4 29 20.5 37t53.5 2q6 -2 29.5 -4t33.5 -2q31 0 46.5 13.5t15.5 52.5v938q0 43 45 43h192q43 0 43 -43v-973q0 -57 -14.5 -108.5t-50 -90.5t-94 -62.5t-144.5 -23.5q-51 0 -89 7t-58 14q-16 4 -37 15q-18 9 -18 33q0 4 1 9zM90 1161q0 63 47 108.5 t115 45.5q33 0 61.5 -12.5t50 -34t35 -49t13.5 -58.5q0 -63 -47.5 -109t-112.5 -46q-68 0 -115 45t-47 110z" />
<glyph unicode="k" horiz-adv-x="1013" d="M109 43v1219q0 43 45 43h194q18 0 30.5 -10.5t12.5 -32.5v-564q0 -16 7.5 -14t15.5 10l159 193q20 23 31.5 28t48.5 5h246q18 0 24.5 -14.5t-8.5 -31.5l-233 -262q-10 -10 -10 -18t14 -8q29 -4 45 -8q59 -16 94 -49t54.5 -76t26.5 -95.5t12 -107.5l12 -207q2 -43 -37 -43 h-205q-23 0 -31 11.5t-10 31.5l-14 229q-4 47 -32 81t-87 34t-91 -34t-32 -81v-229q0 -43 -39 -43h-207q-23 0 -29.5 11.5t-6.5 31.5z" />
<glyph unicode="l" horiz-adv-x="575" d="M121 274v988q0 43 45 43h190q18 0 32.5 -10.5t14.5 -32.5v-936q0 -47 12.5 -68.5t61.5 -21.5h19q25 0 30.5 -15.5t5.5 -25.5v-160q0 -31 -13 -38t-36 -11q-22 -3 -42 -3h-10q-25 1 -30 1q-143 0 -211.5 67.5t-68.5 222.5z" />
<glyph unicode="m" horiz-adv-x="1519" d="M109 43v539q0 78 26.5 143.5t75.5 113.5t120.5 74.5t164.5 26.5q31 0 67.5 -8t70.5 -22.5t64.5 -35t49.5 -43.5q10 -10 16 -10t16 10q18 20 50 41t69 35.5t75 23.5t68 9q92 0 163 -26.5t118 -74.5t70.5 -114t23.5 -143v-539q0 -43 -47 -43h-192q-45 0 -45 43v539 q0 47 -29 78.5t-86 31.5q-43 0 -79 -31.5t-36 -78.5v-539q0 -43 -45 -43h-192q-45 0 -45 43v539q0 47 -31 78.5t-82 31.5q-47 0 -81 -31.5t-34 -78.5v-539q0 -43 -47 -43h-192q-45 0 -45 43z" />
<glyph unicode="n" horiz-adv-x="1017" d="M109 43v836q0 43 45 43h200q37 0 37 -43q0 -12 8 -13q4 0 13 8q29 23 81 42.5t103 19.5q82 0 142.5 -27.5t99.5 -75t57 -113t18 -140.5v-537q0 -43 -43 -43h-192q-23 0 -36 11.5t-13 31.5v532q0 47 -25.5 80t-93.5 33q-53 0 -86 -32.5t-33 -80.5v-532q0 -43 -47 -43h-190 q-45 0 -45 43z" />
<glyph unicode="o" horiz-adv-x="997" d="M94 332v256q0 76 29 141.5t82 111.5t127 72.5t166 26.5q90 0 164.5 -22.5t128 -66.5t83 -110.5t29.5 -152.5v-244q0 -88 -30.5 -154.5t-86 -111.5t-129 -67.5t-159.5 -22.5q-90 0 -165 24.5t-128 70.5t-82 108.5t-29 140.5zM377 346q0 -51 32.5 -80.5t88.5 -29.5 q55 0 87.5 28.5t32.5 81.5v232q0 53 -32.5 82.5t-89.5 29.5q-55 0 -87 -32.5t-32 -84.5v-227z" />
<glyph unicode="p" horiz-adv-x="993" d="M106 -328v1205q0 43 48 43h192q18 0 25.5 -8.5t15.5 -22.5q4 -10 16 -10q6 0 12.5 5t16.5 13q31 25 75 33t75 8q92 0 154.5 -32t101.5 -83t56 -117.5t17 -134.5v-225q0 -78 -24.5 -143.5t-70.5 -114.5t-111.5 -76.5t-149.5 -27.5q-27 0 -65.5 6t-61.5 20q-39 27 -39 0 v-338q0 -23 -13.5 -33t-31.5 -10h-190q-47 0 -48 43zM389 346q0 -49 28.5 -82t92.5 -33q59 0 89 33t30 82v225q0 49 -30 82t-89 33t-90 -34t-31 -81v-225z" />
<glyph unicode="q" horiz-adv-x="993" d="M100 340v231q0 68 16.5 134.5t54.5 117.5t101.5 83t157.5 32q31 0 71 -7t79 -34q10 -6 16 -12t12 -6q10 0 17 10q8 14 15 22.5t26 8.5h192q47 0 47 -43v-1205q0 -43 -47 -43h-190q-18 0 -31.5 10.5t-13.5 32.5v338q0 23 -39 0q-29 -16 -67 -20t-66 -4q-96 0 -163 27.5 t-108 74.5t-60.5 112.5t-19.5 139.5zM383 346q0 -49 29.5 -82t89.5 -33q61 0 91 33t30 82v219q0 47 -26 84t-91 37q-59 0 -91 -36t-32 -85v-219z" />
<glyph unicode="r" horiz-adv-x="731" d="M109 43v834q0 43 45 43h172q18 0 32.5 -9.5t14.5 -31.5v-33q0 -12 6 -15.5t14 7.5q29 41 83 73.5t122 32.5q49 0 94 -14q29 -10 32 -24q1 -4 1 -10q0 -11 -4 -26l-43 -163q-8 -29 -17.5 -36t-33.5 -3q-47 10 -80 10q-90 0 -123 -56.5t-33 -148.5v-430q0 -43 -47 -43h-190 q-45 0 -45 43z" />
<glyph unicode="s" horiz-adv-x="886" d="M84 229l127 84q29 18 46 8t36 -28q37 -41 79 -53.5t77 -12.5t60.5 13.5t25.5 42.5q0 20 -16.5 33.5t-46.5 24.5t-67.5 20.5t-80.5 23.5q-117 35 -177.5 97.5t-60.5 160.5q0 74 28.5 130t78 93t113 55.5t134.5 18.5q88 0 183.5 -27.5t160.5 -93.5q10 -10 11 -22 q0 -14 -23 -47l-84 -107q-10 -10 -29 -10q-20 0 -43 16q-47 33 -94 42t-63 9q-53 0 -76 -16t-23 -39q0 -10 12.5 -24.5t51.5 -24.5q59 -16 129 -37.5t130 -55.5t100 -85t40 -129q0 -82 -32.5 -139.5t-87 -94.5t-121 -53t-133.5 -16q-53 0 -106.5 7t-103 26.5t-93.5 53 t-76 87.5q-13 21 -13 35q0 17 27 34z" />
<glyph unicode="t" horiz-adv-x="708" d="M29 741v136q0 43 41 43h65q16 0 23.5 10t7.5 24v138q0 45 45 55l180 39q6 2 19 2q23 0 31 -12.5t8 -28.5v-193q0 -10 5 -22t33 -12h140q39 0 39 -43v-136q0 -43 -39 -43h-152q-16 0 -21 -6t-5 -16v-363q0 -41 18 -57t57 -16q4 0 15.5 1t25 2t24.5 2t17 1q35 4 47.5 0 t20.5 -41l24 -131q3 -12 3 -22q0 -22 -12 -30q-17 -12 -34 -16q-41 -10 -89 -14t-95 -4q-92 0 -150.5 22.5t-92 61.5t-47 90t-13.5 108v404q0 25 -27 24h-71q-41 0 -41 43z" />
<glyph unicode="u" horiz-adv-x="999" d="M96 342v537q0 43 43 43h193q23 0 36 -11.5t13 -31.5v-533q0 -47 24.5 -80t94.5 -33q66 0 92 38t26 75v533q0 43 48 43h190q45 0 45 -43v-836q0 -43 -45 -43h-201q-37 0 -37 43q0 10 -6 11t-14 -7q-35 -31 -90 -46t-107 -15q-84 0 -141 27.5t-94 74.5t-53.5 112.5 t-16.5 141.5z" />
<glyph unicode="v" horiz-adv-x="942" d="M27 860q-4 10 -4 20t4 20q8 20 43 20h188q31 0 49.5 -15.5t24.5 -36.5l65 -272l66 -266q4 -8 10 -9.5t10 9.5l64 264l61 266q4 12 19.5 36t56.5 24h190q28 0 38 -22q5 -12 6 -23q0 -8 -3 -15l-288 -831q-8 -18 -24.5 -23.5t-37.5 -5.5h-188q-29 0 -43.5 7t-24.5 38z" />
<glyph unicode="w" horiz-adv-x="1452" d="M27 860q-4 10 -4 20t4 20q8 20 43 20h182q61 0 74 -52l55 -235l51 -232q2 -8 9.5 -9t11.5 9l63 232l68 229q8 25 22.5 41.5t38.5 16.5h164q20 0 34.5 -8.5t24.5 -41.5l72 -237l66 -232q2 -8 9 -9t11 9l51 242l49 217q6 29 20.5 44.5t55.5 15.5h184q34 0 40 -22 q3 -11 3 -21q0 -9 -2 -17l-237 -817q-10 -27 -28.5 -35t-39.5 -8h-172q-29 0 -43 7t-24 38l-72 236l-74 268q-2 6 -8 7t-10 -7l-80 -281l-70 -225q-10 -31 -27.5 -37t-37.5 -6h-172q-29 0 -43.5 7t-24.5 38z" />
<glyph unicode="x" horiz-adv-x="909" d="M16 35q0 16 9 26l237 375q18 29 17.5 44.5t-21.5 43.5l-211 328q-10 14 -10 31q0 14 10 25.5t37 11.5h182q29 0 42.5 -5.5t31.5 -33.5l96 -181q8 -14 16.5 -17t20.5 17l98 181q18 29 31.5 34t42.5 5h182q27 0 37 -11.5t10 -25.5q0 -16 -10 -31l-219 -336q-18 -27 -16 -41 t20 -43l236 -371q8 -10 8 -26q0 -14 -11.5 -24.5t-39.5 -10.5h-168q-25 0 -41.5 7t-36.5 36l-119 209q-14 23 -23.5 18.5t-19.5 -18.5l-121 -209q-20 -29 -36.5 -36t-40.5 -7h-168q-29 0 -40.5 10t-11.5 25z" />
<glyph unicode="y" horiz-adv-x="970" d="M25 870q-3 11 -3 20q0 12 6 20q11 12 33 12h220q27 0 36 -12.5t15 -32.5l86 -342l49 -218q4 -16 12 -13t13 13l155 560q6 20 19.5 32.5t42.5 12.5h196q23 0 36 -16q7 -10 7 -23q0 -10 -4 -23l-375 -1190q-6 -18 -19 -30.5t-36 -12.5h-188q-23 0 -34 13.5t-1 42.5l80 278 q6 23 2 31t-25 8h-24q-25 0 -36.5 12.5t-17.5 30.5z" />
<glyph unicode="z" horiz-adv-x="925" d="M59 68v63q0 18 5.5 44t21.5 44l352 430q2 4 4 7t2 8q0 8 -12 8h-311q-45 0 -45 43v162q0 43 45 43h647q41 0 57.5 -16.5t16.5 -43.5v-100q0 -18 -6.5 -42t-24.5 -46l-319 -398q-6 -10 -7 -14q0 -12 21 -12h313q18 0 31.5 -10.5t13.5 -32.5v-162q0 -43 -45 -43h-684 q-45 0 -60.5 19.5t-15.5 48.5z" />
<glyph unicode="{" horiz-adv-x="800" d="M92 530v95q0 23 12.5 37t34.5 24q61 27 99 73t38 122v213q0 178 96.5 255.5t299.5 77.5q23 0 37 -7t14 -29v-152q0 -20 -9 -32.5t-40 -12.5q-43 0 -67.5 -12.5t-36 -32t-13.5 -44t-2 -50.5v-250q0 -72 -30.5 -131.5t-110.5 -93.5q-14 -6 -12.5 -18.5t14.5 -16.5 q45 -16 71.5 -45t42 -63t20.5 -68.5t5 -65.5v-254q0 -72 22.5 -105.5t94.5 -33.5q41 0 46 -10.5t5 -30.5v-148q0 -20 -9 -32.5t-34 -12.5q-109 0 -184.5 13.5t-123.5 48.5t-70.5 93t-22.5 146v304q0 76 -38 123t-98 69q-29 10 -40 25.5t-11 31.5z" />
<glyph unicode="|" horiz-adv-x="497" d="M150 -193v1534q0 43 45 43h112q47 0 47 -43v-1534q0 -43 -47 -43h-112q-45 0 -45 43z" />
<glyph unicode="}" horiz-adv-x="800" d="M96 -137q0 20 9.5 32.5t39.5 12.5q43 0 68 12t36 31.5t13 44t2 51.5v299q0 72 31 131.5t111 93.5q14 6 12 18.5t-15 16.5q-45 16 -71.5 45t-42 63t-20.5 68.5t-5 65.5v205q0 72 -22.5 105.5t-94.5 33.5q-41 0 -46 10t-5 31v147q0 20 9.5 32.5t33.5 12.5q106 0 183 -13 t125.5 -48t71 -93.5t22.5 -146.5v-254q0 -76 37.5 -123t97.5 -69q29 -10 40 -25.5t11 -31.5v-95q0 -23 -12.5 -37t-34.5 -24q-61 -27 -99 -73t-38 -122v-262q0 -178 -96.5 -256t-299.5 -78q-23 0 -37 7.5t-14 29.5v152z" />
<glyph unicode="~" d="M44 590.5q-1 19.5 9 36.5q43 61 117 108t172 47q55 0 105.5 -17t97.5 -38.5t92 -39t94 -17.5q29 0 56.5 21.5t54.5 45.5q23 20 41 18.5t35 -14.5l67 -59q23 -20 30 -41.5t-9 -46.5q-45 -66 -113 -105.5t-158 -39.5q-61 0 -115.5 17t-102.5 38.5t-92 40t-85 18.5 q-29 0 -56.5 -14t-64.5 -57q-12 -16 -30.5 -23.5t-43.5 14.5l-88 78q-12 10 -13 29.5z" />
<glyph unicode="&#xa1;" horiz-adv-x="598" d="M168 768q0 31 13.5 58.5t35 49t51 34t62.5 12.5q66 0 112.5 -46.5t46.5 -107.5q0 -66 -47 -110t-112 -44q-33 0 -62.5 12.5t-51 33t-35 49t-13.5 59.5zM188 -315l43 819q-2 6 2 12q4 14 23 14h141q10 0 14.5 -5t8.5 -9q4 -6 4 -12l45 -819q4 -39 -35 -39h-211 q-37 0 -35 39z" />
<glyph unicode="&#xa2;" d="M135 350v228q0 135 77 227t208 123q8 2 21.5 8t13.5 22v95q0 33 37 32h110q35 0 35 -32v-97q0 -20 17.5 -25t27.5 -9q55 -16 104 -50q51 -35 85 -81t47 -74q4 -6 3 -29.5t-24 -34.5l-152 -73q-39 -18 -53 0t-24 41q-18 39 -57.5 55t-69.5 16q-53 0 -87 -33.5t-34 -80.5 v-228q0 -47 33.5 -80.5t87.5 -33.5q27 0 50 10t42.5 25.5t33 33t23.5 29.5q10 16 24.5 22t37.5 -6l143 -71q23 -10 27 -25.5t-4 -38.5q-6 -18 -17.5 -36.5t-24 -36t-24.5 -32t-18 -20.5q-29 -29 -67 -50.5t-85 -33.5l-27.5 -11t-17.5 -30v-86q0 -33 -35 -33h-110 q-37 0 -37 33v88q0 23 -15.5 27t-25.5 8q-129 33 -204 124t-75 224z" />
<glyph unicode="&#xa3;" d="M61 43v143q0 23 16.5 41.5t37.5 24.5q41 14 60.5 46t19.5 71v100q0 20 -5.5 32.5t-35.5 14.5l-45 2q-45 4 -46 43v144q0 43 46 43h57q18 0 24.5 10t6.5 33v120q0 82 25.5 150.5t74.5 119t119.5 78t161.5 27.5q66 0 125 -9t110 -34.5t94 -69.5t74 -114q4 -10 1 -30.5 t-24 -31.5l-155 -77q-31 -16 -42 -4t-22 30q-25 43 -55.5 66.5t-83.5 23.5q-59 0 -90 -33.5t-31 -82.5v-125q0 -47 49 -47h162q45 0 45 -43v-144q0 -43 -45 -43h-160q-31 0 -41 -10t-10 -37v-61q0 -37 -6 -78t-24 -64q-10 -12 -3 -14t17 -2h432q18 0 32.5 -11.5t14.5 -33.5 v-164q0 -43 -47 -43h-786q-47 0 -48 43z" />
<glyph unicode="&#xa4;" horiz-adv-x="1007" d="M90 214q0 22 16 42l84 86q-47 88 -47 172q0 43 9.5 86t35.5 82q-18 23 -35.5 42t-37.5 40q-18 18 -22.5 32.5t24.5 39.5l67 63q35 37 52 21l86 -97q43 29 88 37t90 8q47 0 91 -9t85 -36q18 20 38.5 40t41.5 38q16 16 34.5 20.5t40.5 -18.5l64 -63q23 -23 21.5 -42.5 t-19.5 -33.5q-23 -23 -41 -39t-41 -39q29 -41 38 -85t9 -91t-8 -92t-37 -88l80 -74q16 -16 18.5 -34.5t-16.5 -41.5l-65 -67q-18 -18 -34 -19.5t-26 8.5l-98 91q-86 -45 -172 -46q-96 0 -178 48q-16 -16 -38 -37t-38 -39q-35 -35 -74 -2l-70 63q-16 12 -16 34zM340 510 q0 -70 48 -117t116 -47t115 47t47 117q0 68 -47.5 114t-114.5 46q-68 0 -116 -46t-48 -114z" />
<glyph unicode="&#xa5;" d="M52 1240q5 24 46 24h197q29 0 45 -6.5t27 -34.5l79 -217l66 -195q6 -16 17.5 -17t17.5 15l69 203l80 207q10 23 24.5 34t49.5 11h195q41 0 45 -23.5t-4 -38.5l-162 -362q-8 -16 -12.5 -27.5t24.5 -11.5h41q45 0 45 -43v-99q0 -43 -45 -43h-741q-45 0 -45 43v99 q0 43 45 43h45q16 0 20 12t-4 27l-162 362q-8 14 -3 38zM111 401v97q0 43 45 43h741q20 0 32.5 -12.5t12.5 -30.5v-97q0 -43 -45 -43h-180q-29 0 -37 -11t-8 -38v-266q0 -43 -45 -43h-193q-45 0 -45 43v264q0 23 -4 37t-37 14h-192q-45 0 -45 43z" />
<glyph unicode="&#xa6;" horiz-adv-x="497" d="M150 -193v695q0 43 45 43h112q47 0 47 -43v-695q0 -43 -47 -43h-112q-45 0 -45 43zM150 645v694q0 43 45 43h112q47 0 47 -43v-694q0 -43 -47 -43h-112q-45 0 -45 43z" />
<glyph unicode="&#xa7;" horiz-adv-x="1001" d="M137 59q0 27 27 45l86 64q20 14 33 14q12 0 22 -9t23 -23q29 -33 78 -57.5t102 -24.5q41 0 68.5 14t27.5 39q0 29 -28.5 47t-90.5 41q-59 20 -111 50t-91 65.5t-62.5 80t-23.5 95.5q0 78 47 146.5t149 96.5q4 0 6 1t4 1q12 0 18.5 -8t10.5 -16l66 -119q4 -6 4 -18 t-7.5 -20.5t-15.5 -12.5q-23 -14 -22 -35q0 -23 27.5 -45t74.5 -41q66 -25 125 -52.5t103 -63t71 -82t27 -107.5q0 -66 -30 -115t-81 -82.5t-120.5 -50t-149.5 -16.5q-49 0 -102.5 9t-102.5 29.5t-91 55.5t-67 86q-4 6 -4 18zM182 1059q0 59 27 109.5t73 86t107.5 55 t132.5 19.5q47 0 99.5 -9t100.5 -29.5t89 -55.5t66 -86q4 -6 4 -21q0 -25 -25 -43l-88 -63q-20 -14 -33 -14q-16 0 -41 28q-29 29 -72.5 57.5t-99.5 28.5q-82 0 -82 -53q0 -29 23.5 -42t83.5 -36q68 -25 124 -53.5t97 -63t64.5 -77.5t23.5 -101q0 -78 -47 -145.5 t-141 -101.5q-8 -4 -13 -5q-16 0 -26 27l-62 127q-6 12 -6 20q0 12 6 17.5t11 9.5q18 18 18 39q0 39 -34 59.5t-93 42.5q-61 23 -114.5 46.5t-91.5 54.5t-59.5 71.5t-21.5 100.5z" />
<glyph unicode="&#xa8;" horiz-adv-x="993" d="M162 1155q0 59 43 101t106 42q66 0 109 -42t43 -101q0 -61 -43 -102t-109 -41t-107.5 40t-41.5 103zM549 1155q0 59 43 101t108 42q63 0 106.5 -42t43.5 -101q0 -61 -43 -102t-107 -41q-66 0 -108.5 40t-42.5 103z" />
<glyph unicode="&#xa9;" horiz-adv-x="1447" d="M125 498v268q0 117 45 209t125 156.5t190.5 98.5t241.5 34q129 0 240.5 -33t193.5 -95.5t128 -155.5t46 -214v-268q0 -121 -46 -214.5t-128 -155.5t-193.5 -95t-240.5 -33q-131 0 -241.5 34t-190.5 98.5t-125 156.5t-45 209zM270 492q0 -70 28 -134.5t84 -114.5t142 -80 t203 -30q115 0 202 30t145.5 79t87 113.5t28.5 136.5v280q0 74 -28.5 138.5t-87 112.5t-144.5 76.5t-203 28.5t-203 -29.5t-142 -78.5t-84 -113.5t-28 -134.5v-280zM487 455v315q0 94 69 151.5t171 57.5q78 0 138.5 -25.5t97.5 -103.5q4 -6 1 -18.5t-14 -18.5l-90 -43 q-16 -10 -23.5 -3t-13.5 17q-18 33 -42.5 42.5t-47.5 9.5q-35 0 -59.5 -18.5t-24.5 -47.5v-315q0 -27 23.5 -46.5t60.5 -19.5q31 0 53.5 13.5t40.5 37.5q6 10 11.5 16.5t17.5 0.5l98 -45q18 -10 9 -37q-43 -82 -98.5 -105.5t-137.5 -23.5q-104 0 -172 57t-68 152z" />
<glyph unicode="&#xaa;" horiz-adv-x="686" d="M49 713q0 88 64.5 149.5t191.5 61.5q27 0 54.5 -7.5t48.5 -21.5q8 -4 8 6v14q0 23 -17.5 42.5t-72.5 19.5q-37 0 -79 -8t-83 -25q-23 -10 -37 25l-23 73q-10 35 25 52q55 23 113.5 33t122.5 10q135 0 198.5 -68t63.5 -178v-352q0 -35 -35 -35h-139q-8 0 -18.5 4t-10.5 20 q0 10 -4 12.5t-8 -1.5q-14 -14 -52 -27.5t-73 -13.5q-117 0 -177.5 57t-60.5 158zM264 719q0 -23 18.5 -41.5t49.5 -18.5q33 0 50 18.5t17 41.5t-19.5 42t-47.5 19q-31 0 -49.5 -18.5t-18.5 -42.5z" />
<glyph unicode="&#xab;" horiz-adv-x="1263" d="M149.5 416.5q2.5 25.5 24.5 50.5l238 283q12 14 27.5 25t49.5 11h170q35 0 46.5 -20.5t-11.5 -44.5l-239 -285q-12 -16 -12.5 -24.5t10.5 -18.5l237 -280q20 -25 9 -48.5t-40 -23.5h-167q-29 0 -46.5 10t-37.5 35l-234 274q-27 31 -24.5 56.5zM600 416.5q2 25.5 25 50.5 l235 283q14 14 29.5 25t50.5 11h168q35 0 47 -20.5t-10 -44.5l-240 -285q-12 -16 -12 -24.5t10 -18.5l238 -280q20 -25 8 -48.5t-41 -23.5h-166q-29 0 -46 10t-40 35l-231 274q-27 31 -25 56.5z" />
<glyph unicode="&#xac;" d="M78 526v103q0 16 12 29.5t35 13.5h809q18 0 33.5 -13.5t15.5 -29.5v-426q0 -18 -9 -31.5t-26 -13.5h-127q-35 0 -35 45v237q0 20 -4 30.5t-37 10.5h-622q-23 0 -34 14.5t-11 30.5z" />
<glyph unicode="&#xad;" horiz-adv-x="628" d="M70 401v138q0 35 43 34h401q41 0 41 -34v-138q0 -37 -41 -36h-401q-43 0 -43 36z" />
<glyph unicode="&#xae;" horiz-adv-x="837" d="M86 901v146q0 129 93 201.5t237 72.5q70 0 131 -17.5t106 -52t71 -86t26 -118.5v-146q0 -66 -26 -117t-71 -85.5t-106 -52t-131 -17.5q-143 0 -236.5 71.5t-93.5 200.5zM174 899q0 -37 14.5 -70.5t44 -59.5t75.5 -42t108 -16q123 0 183 57t60 131v152q0 76 -60 131 t-183 55q-125 0 -183.5 -56.5t-58.5 -129.5v-152zM299 799v352q0 20 20 20h115q66 0 97.5 -32.5t31.5 -81.5q0 -33 -13 -58.5t-32 -42.5q-10 -8 -10 -14t4 -14l59 -121q4 -10 2 -19.5t-16 -9.5h-53q-16 0 -23 15l-57 125q-4 12 -14 12h-19v-131q0 -10 -2 -15.5t-12 -5.5h-64 q-14 0 -14 21zM387 1004h47q14 0 27.5 14t13.5 33q0 37 -41 36h-47v-83z" />
<glyph unicode="&#xaf;" horiz-adv-x="993" d="M281 1157v105q0 45 49 45h426q29 0 39 -9.5t10 -33.5v-107q0 -27 -11.5 -32t-33.5 -5h-434q-18 0 -31.5 6.5t-13.5 30.5z" />
<glyph unicode="&#xb0;" horiz-adv-x="694" d="M70 1059q0 51 21.5 98t58 81t87 54.5t109.5 20.5t111.5 -20.5t91.5 -54.5t61.5 -81t22.5 -98q0 -53 -22.5 -99.5t-61.5 -80t-91 -54t-112 -20.5q-59 0 -109.5 20.5t-87 55t-58 81t-21.5 97.5zM246 1059q0 -41 29.5 -69.5t70.5 -28.5t74 28.5t33 69.5t-33 69.5t-74 28.5 t-70.5 -27.5t-29.5 -70.5z" />
<glyph unicode="&#xb1;" d="M39 92v88q0 25 15.5 39t39.5 14h875q23 0 39 -15t16 -38v-88q0 -25 -15.5 -39t-39.5 -14h-885q-18 0 -31.5 14.5t-13.5 38.5zM39 709v88q0 51 51 51h285q18 0 27.5 6t9.5 29v288q0 23 15 35.5t40 12.5h113q25 0 40 -12.5t15 -35.5v-278q0 -27 6 -36t35 -9h297 q25 0 38 -14.5t13 -36.5v-88q0 -51 -51 -52h-297q-29 0 -35 -10t-6 -26v-285q0 -23 -15.5 -35t-39.5 -12h-113q-25 0 -40 12t-15 35v291q0 31 -47 30h-275q-51 0 -51 52z" />
<glyph unicode="&#xb2;" horiz-adv-x="647" d="M53 719v76q0 18 3 32.5t22 36.5l213 244q47 53 70.5 84t23.5 53q0 25 -18.5 39t-47.5 14q-35 0 -59 -19t-43 -38q-14 -16 -34.5 -17t-37.5 13l-63 57q-18 16 -20.5 28.5t14.5 31.5q51 63 117.5 89.5t136.5 26.5q53 0 101 -12t85 -38.5t58.5 -65.5t21.5 -92 q0 -63 -36 -117.5t-89 -114.5l-129 -147q-12 -12 -7 -18.5t11 -6.5h209q20 0 29.5 -11t9.5 -24v-100q0 -16 -11.5 -25.5t-25.5 -9.5h-473q-10 0 -20.5 6t-10.5 25z" />
<glyph unicode="&#xb3;" horiz-adv-x="647" d="M53 819q-20 39 17 53l98 43q18 10 30.5 8.5t24.5 -18.5q31 -53 90 -53q39 0 61.5 16.5t22.5 40.5v41q0 25 -18.5 45.5t-54.5 20.5h-84q-39 0 -39 39v88q0 37 39 37h84q37 0 56 21.5t19 39.5q0 25 -21.5 43.5t-58.5 18.5q-25 0 -51 -11.5t-41 -36.5q-27 -39 -65 -18 l-82 41q-18 10 -21.5 25.5t13.5 42.5q39 63 107.5 93.5t148.5 30.5q117 0 195.5 -54t78.5 -167q0 -35 -21.5 -73.5t-62.5 -61.5q-4 -4 -6 -8t6 -8q45 -16 64.5 -53t19.5 -76v-54q0 -111 -76.5 -173t-201.5 -62q-86 0 -154 28.5t-117 110.5z" />
<glyph unicode="&#xb4;" horiz-adv-x="964" d="M328 1070q-2 13 6 28l198 323q12 18 30 20.5t30 -3.5l156 -76q27 -12 21.5 -32.5t-13.5 -29.5l-271 -296q-12 -12 -27.5 -10.5t-31.5 10.5l-78 43q-18 10 -20 23z" />
<glyph unicode="&#xb6;" horiz-adv-x="1193" d="M102 936q0 76 28 143.5t78 118.5t117.5 81t147.5 30h148q41 0 41 -41v-658q0 -41 -41 -41h-148q-82 0 -149.5 29t-116.5 78t-77 115.5t-28 144.5zM500 -45q-4 16 4 30.5t28 18.5q129 16 176.5 65.5t47.5 137.5v1063q0 39 39 39h215q41 0 41 -39v-1112q0 -113 -39 -188.5 t-105.5 -123t-153.5 -70t-184 -28.5q-16 0 -27.5 6t-15.5 31z" />
<glyph unicode="&#xb7;" horiz-adv-x="499" d="M90 492q0 66 48 109.5t114 43.5t113 -45t47 -108q0 -31 -13.5 -58.5t-35 -49.5t-50 -34t-61.5 -12q-68 0 -115 46t-47 108z" />
<glyph unicode="&#xb8;" horiz-adv-x="851" d="M258 -354.5q-6 8.5 8 24.5l49 56q14 16 20.5 16t18.5 -8q18 -10 42 -19.5t48 -9.5q49 0 68.5 18.5t19.5 38.5q0 10 -9 30t-50 20h-72q-35 -2 -58.5 21.5t-14.5 57.5l41 154q4 10 10 21.5t22 11.5h72q23 0 26 -11.5t-1 -31.5l-23 -88q-4 -6 6 -6h15q74 0 128 -46.5 t54 -130.5q0 -31 -12.5 -64.5t-39 -61t-70.5 -45t-107 -17.5q-53 0 -96.5 14.5t-78.5 38.5q-10 8 -16 16.5z" />
<glyph unicode="&#xb9;" horiz-adv-x="595" d="M106 1225v90q0 18 3.5 29.5t25.5 25.5l133 80q10 4 19.5 7t23.5 3h101q39 0 39 -37v-698q0 -37 -39 -37h-125q-43 0 -43 37v489q0 18 -25 11l-57 -27q-55 -31 -56 27z" />
<glyph unicode="&#xba;" horiz-adv-x="688" d="M59 729v162q0 51 21.5 95t59.5 76t90.5 49t113.5 17q55 0 107.5 -15t91.5 -45t62.5 -74t23.5 -103v-156q0 -59 -23.5 -103t-62.5 -74t-90.5 -45t-108.5 -15q-59 0 -110.5 16t-90.5 47t-61.5 73t-22.5 95zM270 737q0 -29 22.5 -44t51.5 -15t49.5 15.5t20.5 43.5v150 q0 29 -20.5 43t-51.5 14q-29 0 -50.5 -16.5t-21.5 -44.5v-146z" />
<glyph unicode="&#xbb;" horiz-adv-x="1263" d="M138 62.5q-11 21.5 12 46.5l239 284q12 14 12 22.5t-10 20.5l-237 281q-20 23 -9 46t39 23h168q29 0 46.5 -9t37.5 -34l234 -274q25 -31 23.5 -56.5t-23.5 -50.5l-238 -282q-12 -14 -27.5 -26.5t-50.5 -12.5h-170q-35 0 -46 21.5zM589 62.5q-11 21.5 11 46.5l240 284 q12 14 12 22.5t-10 20.5l-238 281q-20 23 -9 46t40 23h166q31 0 48 -9t38 -34l231 -274q27 -31 25 -56.5t-23 -50.5l-237 -282q-12 -14 -28.5 -26.5t-51.5 -12.5h-168q-35 0 -46 21.5z" />
<glyph unicode="&#xbc;" horiz-adv-x="1597" d="M137 1040v90q0 18 3 29.5t26 26.5l133 80q10 4 19.5 7t23.5 3h100q39 0 39 -37v-698q0 -37 -39 -37h-125q-43 0 -43 37v489q0 18 -24 10l-57 -26q-55 -31 -56 26zM326.5 -44q-7.5 17 1.5 36l592 1306q12 27 47 27h86q31 0 38 -17.5t-1 -35.5l-594 -1311q-10 -23 -37 -22 h-94q-31 0 -38.5 17zM782 195v75q0 16 3 31.5t16 40.5l221 397q12 23 25.5 28t35.5 5h131q16 0 25.5 -6t-2.5 -29l-217 -393q-6 -10 -2 -12t10 -2h80q4 0 10 2t6 14v84q0 27 12.5 30t22.5 3h131q20 0 27.5 -6t7.5 -29v-84q0 -14 16 -14h52q20 0 27 -5.5t7 -23.5v-108 q0 -14 -4 -24.5t-24 -10.5h-60q-14 0 -14 -17v-104q0 -37 -35 -37h-133q-20 0 -26.5 9t-6.5 28v102q0 12 -6 15.5t-14 3.5h-281q-41 0 -41 37z" />
<glyph unicode="&#xbd;" horiz-adv-x="1597" d="M141 1040v90q0 18 3 29.5t26 26.5l133 80q10 4 19.5 7t23.5 3h100q39 0 39 -37v-698q0 -37 -39 -37h-124q-43 0 -43 37v489q0 18 -25 10l-57 -26q-55 -31 -56 26zM329 -44q-7 17 1 36l592 1306q12 27 47 27h86q31 0 38 -17.5t-1 -35.5l-594 -1311q-10 -23 -37 -22h-94 q-31 0 -38 17zM897 31v78q0 18 3 31.5t22 35.5l213 244q47 53 69.5 84t22.5 53q0 25 -18.5 41t-45.5 16q-35 0 -59.5 -16t-42.5 -35q-16 -14 -35.5 -16t-38.5 12l-61 49q-18 16 -19.5 27.5t15.5 30.5q49 63 115.5 90.5t133.5 27.5q53 0 100.5 -13t83.5 -38.5t56.5 -65.5 t20.5 -92q0 -63 -37 -117.5t-90 -113.5l-129 -147q-10 -14 -6 -19.5t12 -5.5h217q20 0 28.5 -12.5t8.5 -22.5v-102q0 -16 -10.5 -25.5t-24.5 -9.5h-473q-12 0 -21.5 6t-9.5 25z" />
<glyph unicode="&#xbe;" horiz-adv-x="1597" d="M51 635q-20 39 17 53l98 43q18 10 30.5 8t24.5 -18q31 -53 90 -53q39 0 61.5 16t22.5 41v41q0 25 -18.5 45t-54.5 20h-84q-39 0 -39 39v88q0 37 39 37h84q37 0 56 21.5t19 40.5q0 25 -21.5 43t-58.5 18q-25 0 -51 -11t-41 -36q-27 -39 -65 -18l-82 41q-18 10 -21.5 25.5 t13.5 41.5q39 63 107.5 94t148.5 31q117 0 195.5 -54t78.5 -167q0 -35 -21.5 -74t-62.5 -61q-4 -4 -6 -8t6 -9q45 -16 64.5 -53t19.5 -76v-53q0 -111 -77 -173t-201 -62q-86 0 -154 28.5t-117 110.5zM390 -44q-7 17 1 36l592 1306q12 27 47 27h86q31 0 38 -17.5t-1 -35.5 l-594 -1311q-10 -23 -37 -22h-94q-31 0 -38 17zM844 195v75q0 16 3 31.5t15 40.5l221 397q12 23 25.5 28t36.5 5h131q16 0 25.5 -6t-3.5 -29l-217 -393q-6 -10 -2 -12t11 -2h79q4 0 10.5 2t6.5 14v84q0 27 12 30t23 3h131q20 0 27 -6t7 -29v-84q0 -14 17 -14h51 q20 0 27.5 -5.5t7.5 -23.5v-108q0 -14 -4 -24.5t-25 -10.5h-59q-14 0 -15 -17v-104q0 -37 -34 -37h-133q-20 0 -26.5 9t-6.5 28v102q0 12 -6 15.5t-15 3.5h-280q-41 0 -41 37z" />
<glyph unicode="&#xbf;" d="M176 -18q0 53 20.5 102t51.5 91t66.5 75t64.5 51q27 16 58.5 34.5t58 41t44 50.5t17.5 62q0 16 8 29.5t37 13.5h186q29 0 40.5 -10t11.5 -41v-43q0 -82 -50.5 -155.5t-142.5 -132.5q-27 -16 -56.5 -36t-54 -40.5t-40 -43t-15.5 -46.5q0 -61 35 -84t84 -23q37 0 62.5 10.5 t43 23.5t28.5 28.5t20 27.5q10 16 28.5 24.5t40.5 -3.5l129 -80q23 -14 25 -31.5t-14 -44.5q-37 -61 -77 -101t-86 -62.5t-100.5 -32t-119.5 -9.5q-193 0 -298.5 94.5t-105.5 260.5zM545 770q0 61 47 107.5t113 46.5q68 0 114.5 -46.5t46.5 -107.5q0 -66 -48 -110t-113 -44 q-66 0 -113 44.5t-47 109.5z" />
<glyph unicode="&#xc0;" horiz-adv-x="1038" d="M22.5 34q2.5 9 4.5 17l295 1180q12 35 51 35h291q16 0 30.5 -4.5t20.5 -30.5l301 -1180q4 -12 -1 -31.5t-42 -19.5h-207q-18 0 -32.5 9t-18.5 28l-31 145q-6 29 -14 38t-29 9h-244q-27 0 -32 -12t-11 -31l-30 -149q-4 -20 -20.5 -28.5t-31.5 -8.5h-204q-20 0 -30.5 5 t-14 12.5t-1 16.5zM132 1530q1 10 11 20l119 127q10 10 26.5 15.5t35.5 -9.5l301 -231q29 -25 4 -53l-58 -68q-10 -12 -24.5 -20t-30.5 0l-358 180q-4 2 -11.5 8t-11.5 13.5t-3 17.5zM430 492q-2 -20 21 -21h141q10 0 15 5t1 22l-43 202l-41 211q-2 10 -8 11.5t-8 -11.5 l-39 -211z" />
<glyph unicode="&#xc1;" horiz-adv-x="1038" d="M22.5 34q2.5 9 4.5 17l295 1180q12 35 51 35h291q16 0 30.5 -4.5t20.5 -30.5l301 -1180q4 -12 -1 -31.5t-42 -19.5h-207q-18 0 -32.5 9t-18.5 28l-31 145q-6 29 -14 38t-29 9h-244q-27 0 -32 -12t-11 -31l-30 -149q-4 -20 -20.5 -28.5t-31.5 -8.5h-204q-20 0 -30.5 5 t-14 12.5t-1 16.5zM375 1399q-25 29 4 53l301 231q18 14 34.5 9.5t26.5 -15.5l119 -127q10 -10 11 -20t-3 -17.5t-11 -13.5t-11 -8l-359 -180q-16 -8 -30.5 0t-24.5 20zM430 492q-2 -20 21 -21h141q10 0 15 5t1 22l-43 202l-41 211q-2 10 -8 11.5t-8 -11.5l-39 -211z" />
<glyph unicode="&#xc2;" horiz-adv-x="1038" d="M22.5 34q2.5 9 4.5 17l295 1180q12 35 51 35h291q16 0 30.5 -4.5t20.5 -30.5l301 -1180q4 -12 -1 -31.5t-42 -19.5h-207q-18 0 -32.5 9t-18.5 28l-31 145q-6 29 -14 38t-29 9h-244q-27 0 -32 -12t-11 -31l-30 -149q-4 -20 -20.5 -28.5t-31.5 -8.5h-204q-20 0 -30.5 5 t-14 12.5t-1 16.5zM136.5 1375q2.5 11 10.5 22l211 276q10 10 19.5 15.5t25.5 5.5h205q16 0 25.5 -5.5t19.5 -15.5l209 -276q8 -10 11.5 -22.5t-13.5 -18.5l-102 -41q-16 -8 -25.5 -7t-19.5 11l-199 186q-4 4 -12 5t-13 -3l-198 -190q-10 -10 -19.5 -11t-25.5 7l-96 43 q-16 8 -13.5 19zM430 492q-2 -20 21 -21h141q10 0 15 5t1 22l-43 202l-41 211q-2 10 -8 11.5t-8 -11.5l-39 -211z" />
<glyph unicode="&#xc3;" horiz-adv-x="1038" d="M22.5 34q2.5 9 4.5 17l295 1180q12 35 51 35h291q16 0 30.5 -4.5t20.5 -30.5l301 -1180q4 -12 -1 -31.5t-42 -19.5h-207q-18 0 -32.5 9t-18.5 28l-31 145q-6 29 -14 38t-29 9h-244q-27 0 -32 -12t-11 -31l-30 -149q-4 -20 -20.5 -28.5t-31.5 -8.5h-204q-20 0 -30.5 5 t-14 12.5t-1 16.5zM162 1419q0 4 4 17q43 102 101.5 139t115.5 37q35 0 67.5 -10.5t62.5 -23.5t57.5 -24.5t52.5 -11.5q27 0 48 12.5t44 40.5q8 12 22 13q8 0 21 -6l84 -52q23 -12 22 -24q0 -4 -4 -17q-49 -98 -102 -133t-111 -35q-29 0 -60.5 10.5t-63 22.5t-62.5 22.5 t-58 10.5q-20 0 -44.5 -8t-53.5 -43q-10 -16 -20 -17q-6 0 -19 7l-92 55q-12 6 -12 18zM430 492q-2 -20 21 -21h141q10 0 15 5t1 22l-43 202l-41 211q-2 10 -8 11.5t-8 -11.5l-39 -211z" />
<glyph unicode="&#xc4;" horiz-adv-x="1038" d="M22.5 34q2.5 9 4.5 17l295 1180q12 35 51 35h291q16 0 30.5 -4.5t20.5 -30.5l301 -1180q4 -12 -1 -31.5t-42 -19.5h-207q-18 0 -32.5 9t-18.5 28l-31 145q-6 29 -14 38t-29 9h-244q-27 0 -32 -12t-11 -31l-30 -149q-4 -20 -20.5 -28.5t-31.5 -8.5h-204q-20 0 -30.5 5 t-14 12.5t-1 16.5zM162 1470q0 59 43 101.5t106 42.5q66 0 109 -42.5t43 -101.5q0 -61 -43 -102t-109 -41t-107.5 40t-41.5 103zM430 492q-2 -20 21 -21h141q10 0 15 5t1 22l-43 202l-41 211q-2 10 -8 11.5t-8 -11.5l-39 -211zM549 1470q0 59 43 101.5t108 42.5 q63 0 106.5 -42.5t43.5 -101.5q0 -61 -43 -102t-107 -41q-66 0 -108.5 40t-42.5 103z" />
<glyph unicode="&#xc5;" horiz-adv-x="1038" d="M22.5 34q2.5 9 4.5 17l295 1180q12 35 51 35h291q16 0 30.5 -4.5t20.5 -30.5l301 -1180q4 -12 -1 -31.5t-42 -19.5h-207q-18 0 -32.5 9t-18.5 28l-31 145q-6 29 -14 38t-29 9h-244q-27 0 -32 -12t-11 -31l-30 -149q-4 -20 -20.5 -28.5t-31.5 -8.5h-204q-20 0 -30.5 5 t-14 12.5t-1 16.5zM313 1499q0 76 52.5 131.5t134.5 55.5q39 0 74.5 -14.5t62.5 -40t42 -59.5t15 -73t-15 -72.5t-42 -58.5t-62.5 -39t-74.5 -14q-80 0 -133.5 53t-53.5 131zM430 492q-2 -20 21 -21h141q10 0 15 5t1 22l-43 202l-41 211q-2 10 -8 11.5t-8 -11.5l-39 -211z M436 1499q0 -29 18.5 -47t45.5 -18q29 0 49 18t20 47q0 27 -20.5 47.5t-48.5 20.5q-27 0 -45.5 -19.5t-18.5 -48.5z" />
<glyph unicode="&#xc6;" horiz-adv-x="1615" d="M2 17.5q-2 17.5 2 33.5l471 1180q8 18 23.5 26.5t31.5 8.5h959q20 0 29.5 -8.5t9.5 -32.5v-170q0 -23 -8.5 -36t-30.5 -13h-430q-43 0 -43 -39v-144q0 -29 7 -40t38 -11h348q25 0 32 -9t7 -32v-170q0 -23 -7 -36t-32 -13h-354q-29 0 -34 -10t-5 -33v-162q0 -12 5 -28.5 t38 -16.5h448q20 0 29.5 -9t9.5 -34v-180q0 -23 -8 -31t-31 -8h-733q-25 0 -38 8t-13 31v182q0 16 -4 29.5t-31 13.5h-266q-29 0 -40 -11t-17 -32l-72 -184q-8 -23 -24.5 -30t-30.5 -7h-199q-35 0 -37 17.5zM473 528q-10 -23 16 -22h199q14 0 24.5 5t10.5 26v446 q0 8 -3 15.5t-20 7.5h-47q-18 0 -22 -17z" />
<glyph unicode="&#xc7;" horiz-adv-x="1054" d="M123 371v536q0 82 31.5 151.5t88 121t134.5 79t168 27.5q57 0 114.5 -9t110.5 -33.5t100.5 -67.5t85.5 -109q6 -12 6.5 -30.5t-20.5 -30.5l-147 -103q-27 -10 -42.5 -2t-25.5 27q-31 53 -72 76.5t-94 23.5q-39 0 -66.5 -12t-46 -31.5t-26.5 -44.5t-8 -47v-522 q0 -45 32.5 -83t108.5 -38q51 0 95 26.5t75 69.5q10 10 22.5 25.5t34.5 3.5l166 -88q23 -10 31 -25.5t-4 -36.5q-76 -127 -176.5 -179t-218.5 -56l-11 -43q-4 -6 6 -6h15q74 0 128 -46.5t54 -130.5q0 -31 -12 -64.5t-39 -61t-71 -45t-107 -17.5q-53 0 -96.5 14.5t-77.5 38.5 q-10 8 -16.5 16.5t7.5 24.5l50 56q14 16 20 16t19 -8q18 -10 41.5 -19.5t48.5 -9.5q49 0 68.5 18.5t19.5 38.5q0 10 -9.5 30t-50.5 20h-71q-35 -2 -58.5 21.5t-15.5 57.5l27 105q-154 25 -240 126t-86 249z" />
<glyph unicode="&#xc8;" horiz-adv-x="1015" d="M127 49v1168q0 49 49 49h705q41 0 41 -45v-166q0 -49 -41 -49h-414q-31 0 -40 -9.5t-9 -29.5v-140q0 -29 10 -40t41 -11h340q25 0 34 -13t9 -36v-162q0 -23 -9 -36t-34 -13h-346q-29 0 -37 -10t-8 -33v-166q0 -29 13 -37t46 -8h420q41 0 41 -47v-166q0 -49 -41 -49h-721 q-49 0 -49 49zM179 1530q1 10 11 20l119 127q10 10 26.5 15.5t35.5 -9.5l301 -231q29 -25 4 -53l-58 -68q-10 -12 -24 -20t-31 0l-358 180q-4 2 -11.5 8t-11.5 13.5t-3 17.5z" />
<glyph unicode="&#xc9;" horiz-adv-x="1015" d="M127 49v1168q0 49 49 49h705q41 0 41 -45v-166q0 -49 -41 -49h-414q-31 0 -40 -9.5t-9 -29.5v-140q0 -29 10 -40t41 -11h340q25 0 34 -13t9 -36v-162q0 -23 -9 -36t-34 -13h-346q-29 0 -37 -10t-8 -33v-166q0 -29 13 -37t46 -8h420q41 0 41 -47v-166q0 -49 -41 -49h-721 q-49 0 -49 49zM338 1399q-25 29 4 53l301 231q18 14 34.5 9.5t27.5 -15.5l118 -127q10 -10 11.5 -20t-3 -17.5t-11.5 -13.5t-11 -8l-358 -180q-16 -8 -30.5 0t-25.5 20z" />
<glyph unicode="&#xca;" horiz-adv-x="1015" d="M127 49v1168q0 49 49 49h705q41 0 41 -45v-166q0 -49 -41 -49h-414q-31 0 -40 -9.5t-9 -29.5v-140q0 -29 10 -40t41 -11h340q25 0 34 -13t9 -36v-162q0 -23 -9 -36t-34 -13h-346q-29 0 -37 -10t-8 -33v-166q0 -29 13 -37t46 -8h420q41 0 41 -47v-166q0 -49 -41 -49h-721 q-49 0 -49 49zM151 1375q3 11 11 22l211 276q10 10 19 15.5t26 5.5h205q16 0 25 -5.5t20 -15.5l209 -276q8 -10 11 -22.5t-14 -18.5l-102 -41q-16 -8 -25.5 -7t-19.5 11l-199 186q-4 4 -12 5t-12 -3l-199 -190q-10 -10 -19.5 -11t-25.5 7l-96 43q-16 8 -13 19z" />
<glyph unicode="&#xcb;" horiz-adv-x="1015" d="M127 49v1168q0 49 49 49h705q41 0 41 -45v-166q0 -49 -41 -49h-414q-31 0 -40 -9.5t-9 -29.5v-140q0 -29 10 -40t41 -11h340q25 0 34 -13t9 -36v-162q0 -23 -9 -36t-34 -13h-346q-29 0 -37 -10t-8 -33v-166q0 -29 13 -37t46 -8h420q41 0 41 -47v-166q0 -49 -41 -49h-721 q-49 0 -49 49zM182 1470q0 59 43 101.5t107 42.5q66 0 108.5 -42.5t42.5 -101.5q0 -61 -43 -102t-108 -41q-66 0 -108 40t-42 103zM569 1470q0 59 43 101.5t109 42.5q63 0 106 -42.5t43 -101.5q0 -61 -43 -102t-106 -41q-66 0 -109 40t-43 103z" />
<glyph unicode="&#xcc;" horiz-adv-x="559" d="M-140 1530q1 10 11 20l119 127q10 10 26.5 15.5t34.5 -9.5l301 -231q29 -25 4 -53l-57 -68q-10 -12 -24.5 -20t-30.5 0l-359 180q-4 2 -11 8t-11 13.5t-3 17.5zM133 41v1182q0 43 49 43h193q20 0 34.5 -9.5t14.5 -33.5v-1182q0 -41 -49 -41h-193q-49 0 -49 41z" />
<glyph unicode="&#xcd;" horiz-adv-x="559" d="M133 41v1182q0 43 49 43h193q20 0 34.5 -9.5t14.5 -33.5v-1182q0 -41 -49 -41h-193q-49 0 -49 41zM164 1399q-25 29 4 53l301 231q18 14 34.5 9.5t26.5 -15.5l119 -127q10 -10 11.5 -20t-3 -17.5t-11.5 -13.5t-11 -8l-359 -180q-16 -8 -30.5 0t-24.5 20z" />
<glyph unicode="&#xce;" horiz-adv-x="559" d="M-83 1391.5q3 11.5 11 21.5l211 277q10 10 19.5 15t25.5 5h205q16 0 25.5 -5t19.5 -15l209 -277q8 -10 11 -22.5t-13 -18.5l-102 -41q-16 -8 -25.5 -7t-19.5 11l-199 187q-4 4 -12.5 5t-12.5 -3l-198 -191q-10 -10 -19.5 -11t-25.5 7l-97 43q-16 8 -13 19.5zM133 41v1182 q0 43 49 43h193q20 0 34.5 -9.5t14.5 -33.5v-1182q0 -41 -49 -41h-193q-49 0 -49 41z" />
<glyph unicode="&#xcf;" horiz-adv-x="559" d="M-68 1470q0 59 43 101.5t107 42.5q66 0 108.5 -42.5t42.5 -101.5q0 -61 -43 -102t-108 -41q-66 0 -108 40t-42 103zM133 41v1182q0 43 49 43h193q20 0 34.5 -9.5t14.5 -33.5v-1182q0 -41 -49 -41h-193q-49 0 -49 41zM319 1470q0 59 43.5 101.5t108.5 42.5 q63 0 106.5 -42.5t43.5 -101.5q0 -61 -43 -102t-107 -41q-66 0 -109 40t-43 103z" />
<glyph unicode="&#xd0;" horiz-adv-x="1155" d="M33 575v111q0 18 6 26.5t29 8.5h41q10 0 18 6t8 29v461q0 49 51 49h461q205 0 299 -104.5t94 -282.5v-494q0 -84 -22.5 -154.5t-69.5 -122t-118.5 -80t-170.5 -28.5h-473q-51 0 -51 49v457q0 16 -3 25.5t-21 9.5h-43q-23 0 -29 7t-6 27zM428 313q0 -29 10.5 -40t40.5 -11 h127q78 0 110 41t32 111v444q0 80 -36 114t-110 34h-123q-35 0 -43 -15.5t-8 -38.5v-209q0 -23 23 -22h122q23 0 29 -8t6 -27v-111q0 -20 -6 -27t-29 -7h-116q-29 0 -29 -27v-201z" />
<glyph unicode="&#xd1;" horiz-adv-x="1185" d="M131 39v1182q0 45 51 45h133q33 0 47.5 -8.5t30.5 -34.5l371 -613v2q4 -6 7 -4t3 8v607q0 43 51 43h179q23 0 37 -9.5t14 -33.5v-1178q0 -45 -51 -45h-130q-25 0 -42 3t-33 32l-377 608q-2 4 -4 2t-2 -6v-600q0 -23 -14.5 -31t-39.5 -8h-180q-25 0 -38 8t-13 31z M227 1411q0 4 4 16q43 102 102 139.5t116 37.5q35 0 67.5 -10.5t62 -24t57.5 -24.5t52 -11q27 0 48.5 12.5t43.5 40.5q8 12 23 12q8 0 20 -6l84 -51q23 -12 23 -24q0 -4 -4 -17q-49 -98 -102.5 -133t-110.5 -35q-29 0 -60.5 10.5t-63.5 22.5t-62.5 22.5t-57.5 10.5 q-20 0 -45 -8.5t-53 -42.5q-10 -16 -21 -17q-6 0 -18 6l-92 56q-12 6 -13 18z" />
<glyph unicode="&#xd2;" horiz-adv-x="1146" d="M123 383v504q0 92 33.5 165.5t93 126t141.5 80t180 27.5q96 0 179.5 -27.5t143.5 -80t95 -126t35 -165.5v-504q0 -92 -34 -165t-94 -124t-143 -78.5t-180 -27.5q-96 0 -178 27.5t-142 78.5t-95 124t-35 165zM222 1552.5q1 10.5 11 20.5l119 127q10 10 26.5 15t35.5 -9 l301 -231q29 -25 4 -54l-57 -67q-10 -12 -24.5 -20.5t-31.5 -0.5l-358 180q-4 2 -11.5 8.5t-11.5 13.5t-3 17.5zM414 383q0 -51 40 -92t117 -41q72 0 115 40t43 93v504q0 53 -35 96t-121 43q-78 0 -118.5 -43t-40.5 -96v-504z" />
<glyph unicode="&#xd3;" horiz-adv-x="1146" d="M123 383v504q0 92 33.5 165.5t93 126t141.5 80t180 27.5q96 0 179.5 -27.5t143.5 -80t95 -126t35 -165.5v-504q0 -92 -34 -165t-94 -124t-143 -78.5t-180 -27.5q-96 0 -178 27.5t-142 78.5t-95 124t-35 165zM414 383q0 -51 40 -92t117 -41q72 0 115 40t43 93v504 q0 53 -35 96t-121 43q-78 0 -118.5 -43t-40.5 -96v-504zM463 1421q-25 29 4 54l301 231q18 14 34.5 9t26.5 -15l119 -127q10 -10 11.5 -20.5t-3 -17.5t-11.5 -13t-11 -9l-359 -180q-16 -8 -30.5 0t-24.5 21z" />
<glyph unicode="&#xd4;" horiz-adv-x="1146" d="M123 383v504q0 92 33.5 165.5t93 126t141.5 80t180 27.5q96 0 179.5 -27.5t143.5 -80t95 -126t35 -165.5v-504q0 -92 -34 -165t-94 -124t-143 -78.5t-180 -27.5q-96 0 -178 27.5t-142 78.5t-95 124t-35 165zM200 1375q3 11 11 22l211 276q10 10 19.5 15.5t25.5 5.5h205 q16 0 25.5 -5.5t19.5 -15.5l209 -276q8 -10 11 -22.5t-13 -18.5l-103 -41q-16 -8 -25.5 -7t-19.5 11l-198 186q-4 4 -12.5 5t-12.5 -3l-199 -190q-10 -10 -19 -11t-26 7l-96 43q-16 8 -13 19zM414 383q0 -51 40 -92t117 -41q72 0 115 40t43 93v504q0 53 -35 96t-121 43 q-78 0 -118.5 -43t-40.5 -96v-504z" />
<glyph unicode="&#xd5;" horiz-adv-x="1146" d="M123 383v504q0 92 33.5 165.5t93 126t141.5 80t180 27.5q96 0 179.5 -27.5t143.5 -80t95 -126t35 -165.5v-504q0 -92 -34 -165t-94 -124t-143 -78.5t-180 -27.5q-96 0 -178 27.5t-142 78.5t-95 124t-35 165zM227 1432q0 4 4 16q43 102 102 139t116 37q35 0 67.5 -10 t62 -23.5t57.5 -25t52 -11.5q27 0 48.5 12.5t43.5 41.5q8 12 23 12q8 0 20 -6l84 -51q23 -12 23 -25q0 -4 -4 -16q-49 -98 -102.5 -133t-110.5 -35q-29 0 -60.5 10t-63.5 22.5t-62.5 22.5t-57.5 10q-20 0 -45 -8t-53 -43q-10 -16 -21 -16q-6 0 -18 6l-92 55q-12 6 -13 19z M414 383q0 -51 40 -92t117 -41q72 0 115 40t43 93v504q0 53 -35 96t-121 43q-78 0 -118.5 -43t-40.5 -96v-504z" />
<glyph unicode="&#xd6;" horiz-adv-x="1146" d="M123 383v504q0 92 33.5 165.5t93 126t141.5 80t180 27.5q96 0 179.5 -27.5t143.5 -80t95 -126t35 -165.5v-504q0 -92 -34 -165t-94 -124t-143 -78.5t-180 -27.5q-96 0 -178 27.5t-142 78.5t-95 124t-35 165zM223 1470q0 59 43 101.5t107 42.5q66 0 108.5 -42.5 t42.5 -101.5q0 -61 -43 -102t-108 -41q-66 0 -108 40t-42 103zM414 383q0 -51 40 -92t117 -41q72 0 115 40t43 93v504q0 53 -35 96t-121 43q-78 0 -118.5 -43t-40.5 -96v-504zM610 1470q0 59 43 101.5t109 42.5q63 0 106 -42.5t43 -101.5q0 -61 -43 -102t-106 -41 q-66 0 -109 40t-43 103z" />
<glyph unicode="&#xd7;" d="M145 362l209 209q23 23 -16 62l-191 190q-35 35 3 74l77 78q37 33 74 0l203 -203q12 -14 22.5 -16t26.5 14l209 209q35 35 72 -6l79 -78q16 -16 19.5 -35.5t-12.5 -36.5l-203 -202q-20 -18 -21.5 -29.5t19.5 -30.5l196 -196q37 -37 0 -74l-77 -78q-39 -37 -74 -2 l-197 197q-20 20 -32.5 18t-22.5 -14l-207 -207q-16 -16 -35.5 -13t-36.5 19l-77 80q-41 37 -7 71z" />
<glyph unicode="&#xd8;" horiz-adv-x="1146" d="M123 362v535q0 92 36 164t97 122t145 76.5t181 26.5q76 0 135 -17.5t123 -51.5q20 -12 30 4l31 45q18 29 47 10l64 -37q12 -10 9 -22.5t-13 -28.5q-8 -14 -17.5 -27.5t-17.5 -27.5q-10 -16 -11 -24.5t9 -23.5q20 -31 36.5 -74.5t16.5 -103.5v-536q0 -92 -37 -163 t-98.5 -120t-140 -74.5t-164.5 -25.5q-78 0 -150 16t-117 45q-14 10 -19 9t-9 -7l-23 -37q-18 -31 -43 -14l-59 39q-29 18 -8 49l34 51q4 8 4.5 13.5t-6.5 13.5q-23 33 -44 88t-21 108zM414 496l286 452q12 12 2 25q-20 29 -57 41t-74 12q-72 0 -114.5 -42t-42.5 -95v-393z M457 291q18 -23 49 -32t76 -9q27 0 53.5 10t46.5 28.5t33.5 42t13.5 50.5v367l-272 -431q-8 -14 0 -26z" />
<glyph unicode="&#xd9;" horiz-adv-x="1146" d="M123 383v844q0 23 13.5 31t37.5 8h188q23 0 37.5 -7.5t14.5 -31.5v-844q0 -51 40 -92t117 -41q72 0 115 40t43 93l-2 844q0 23 14.5 31t36.5 8h193q25 0 39 -8.5t14 -30.5v-844q0 -92 -34 -165t-94 -124t-143 -78.5t-180 -27.5q-96 0 -178 27.5t-142 78.5t-95 124 t-35 165zM161 1530q1 10 11 20l119 127q10 10 26.5 15.5t34.5 -9.5l301 -231q29 -25 4 -53l-57 -68q-10 -12 -24.5 -20t-30.5 0l-359 180q-4 2 -11 8t-11 13.5t-3 17.5z" />
<glyph unicode="&#xda;" horiz-adv-x="1146" d="M123 383v844q0 23 13.5 31t37.5 8h188q23 0 37.5 -7.5t14.5 -31.5v-844q0 -51 40 -92t117 -41q72 0 115 40t43 93l-2 844q0 23 14.5 31t36.5 8h193q25 0 39 -8.5t14 -30.5v-844q0 -92 -34 -165t-94 -124t-143 -78.5t-180 -27.5q-96 0 -178 27.5t-142 78.5t-95 124 t-35 165zM446 1399q-25 29 5 53l301 231q18 14 34.5 9.5t26.5 -15.5l119 -127q10 -10 11 -20t-3 -17.5t-11 -13.5t-11 -8l-359 -180q-16 -8 -30.5 0t-24.5 20z" />
<glyph unicode="&#xdb;" horiz-adv-x="1146" d="M123 383v844q0 23 13.5 31t37.5 8h188q23 0 37.5 -7.5t14.5 -31.5v-844q0 -51 40 -92t117 -41q72 0 115 40t43 93l-2 844q0 23 14.5 31t36.5 8h193q25 0 39 -8.5t14 -30.5v-844q0 -92 -34 -165t-94 -124t-143 -78.5t-180 -27.5q-96 0 -178 27.5t-142 78.5t-95 124 t-35 165zM190 1375q3 11 11 22l211 276q10 10 19 15.5t26 5.5h205q16 0 25 -5.5t20 -15.5l208 -276q8 -10 11.5 -22.5t-13.5 -18.5l-102 -41q-16 -8 -25.5 -7t-19.5 11l-199 186q-4 4 -12 5t-12 -3l-199 -190q-10 -10 -19.5 -11t-25.5 7l-96 43q-16 8 -13 19z" />
<glyph unicode="&#xdc;" horiz-adv-x="1146" d="M123 383v844q0 23 13.5 31t37.5 8h188q23 0 37.5 -7.5t14.5 -31.5v-844q0 -51 40 -92t117 -41q72 0 115 40t43 93l-2 844q0 23 14.5 31t36.5 8h193q25 0 39 -8.5t14 -30.5v-844q0 -92 -34 -165t-94 -124t-143 -78.5t-180 -27.5q-96 0 -178 27.5t-142 78.5t-95 124 t-35 165zM213 1470q0 59 43 101.5t106 42.5q66 0 109 -42.5t43 -101.5q0 -61 -43 -102t-109 -41t-107.5 40t-41.5 103zM600 1470q0 59 43 101.5t109 42.5q63 0 106 -42.5t43 -101.5q0 -61 -43 -102t-106 -41q-66 0 -109 40t-43 103z" />
<glyph unicode="&#xdd;" horiz-adv-x="1011" d="M22 1246q1 18 41 20h205q29 0 46.5 -7.5t31.5 -37.5l150 -412q4 -8 10 -7t8 5l148 410q10 25 25 37t54 12h193q41 0 47 -19.5t0 -34.5l-315 -725q-10 -20 -13.5 -31.5t-3.5 -27.5v-379q0 -49 -49 -49h-192q-49 0 -50 49v385q0 10 -2 21.5t-10 27.5l-317 727q-8 18 -7 36z M381 1399q-25 29 4 53l301 231q18 14 34.5 9.5t27.5 -15.5l118 -127q10 -10 11.5 -20t-3 -17.5t-11.5 -13.5t-11 -8l-358 -180q-16 -8 -30.5 0t-25.5 20z" />
<glyph unicode="&#xde;" horiz-adv-x="1050" d="M125 41v1184q0 41 51 41h191q51 0 51 -41v-176q0 -14 6 -22.5t27 -8.5h137q92 0 166.5 -27.5t128 -79t82 -122t28.5 -158.5q0 -80 -29.5 -147.5t-83 -117t-128 -76t-164.5 -26.5h-137q-20 0 -26.5 -8t-6.5 -23v-192q0 -41 -51 -41h-191q-51 0 -51 41zM418 569 q0 -27 11 -36t30 -9h129q51 0 82.5 34t31.5 81q0 51 -31.5 85t-82.5 34h-129q-27 0 -34 -13.5t-7 -29.5v-146z" />
<glyph unicode="&#xdf;" horiz-adv-x="1015" d="M117 43v856q0 84 26.5 154.5t77.5 122t122 80t161 28.5q92 0 165.5 -26.5t125 -74.5t79 -113.5t27.5 -145.5q0 -25 -8 -52.5t-21.5 -53t-34 -46t-44.5 -31.5q-23 -10 -17 -14t17 -8q33 -10 56 -31.5t39.5 -49.5t25 -59.5t8.5 -62.5v-170q0 -82 -31 -149.5t-83 -115.5 t-122 -74.5t-149 -26.5h-33q-41 0 -41 38v144q0 16 11 27.5t30 11.5h14q53 0 86 43t33 92v166q0 47 -22.5 86t-84.5 39h-8q-41 0 -41 35v122q0 35 41 35h21q41 0 57 30t16 69q0 51 -29.5 83.5t-78.5 32.5q-51 0 -81 -31.5t-30 -84.5v-875q0 -43 -45 -43h-190q-45 0 -45 43z " />
<glyph unicode="&#xe0;" horiz-adv-x="991" d="M82 305q0 70 22.5 129.5t66.5 102.5t107.5 67.5t143.5 24.5q41 0 83 -9t81 -34q4 -4 12 -4q10 0 10 12v31q0 16 -5 32.5t-21.5 30.5t-45 22.5t-75.5 8.5t-91 -6t-98 -25q-33 -10 -43 -7t-16 21l-35 129q-10 41 23 56q135 55 315 55q209 0 295 -99.5t86 -279.5v-526 q0 -37 -35 -37h-207q-10 0 -19 7t-9 24v8q0 18 -11 18q-6 0 -16 -8q-47 -37 -92 -49t-98 -12q-78 0 -138.5 23.5t-102.5 65.5t-64.5 100.5t-22.5 127.5zM262 1331q0 20 21 31l155 76q12 4 21 4q27 0 39 -21l198 -323q6 -12 6 -23q0 -16 -20 -28l-78 -43q-20 -10 -35 -11 q-14 0 -24 11l-271 296q-12 12 -12 31zM342 315q0 -49 32 -82.5t91 -33.5q55 0 89 32.5t34 83.5q0 49 -32 83t-91 34q-55 0 -89 -33t-34 -84z" />
<glyph unicode="&#xe1;" horiz-adv-x="991" d="M82 305q0 70 22.5 129.5t66.5 102.5t107.5 67.5t143.5 24.5q41 0 83 -9t81 -34q4 -4 12 -4q10 0 10 12v31q0 16 -5 32.5t-21.5 30.5t-45 22.5t-75.5 8.5t-91 -6t-98 -25q-33 -10 -43 -7t-16 21l-35 129q-10 41 23 56q135 55 315 55q209 0 295 -99.5t86 -279.5v-526 q0 -37 -35 -37h-207q-10 0 -19 7t-9 24v8q0 18 -11 18q-6 0 -16 -8q-47 -37 -92 -49t-98 -12q-78 0 -138.5 23.5t-102.5 65.5t-64.5 100.5t-22.5 127.5zM342 315q0 -49 32 -82.5t91 -33.5q55 0 89 32.5t34 83.5q0 49 -32 83t-91 34q-55 0 -89 -33t-34 -84zM367 1070 q-2 13 6 28l198 323q12 18 29.5 20.5t30.5 -3.5l155 -76q27 -12 22 -32.5t-13 -29.5l-271 -296q-12 -12 -27.5 -10.5t-31.5 10.5l-78 43q-18 10 -20 23z" />
<glyph unicode="&#xe2;" horiz-adv-x="991" d="M82 305q0 70 22.5 129.5t66.5 102.5t107.5 67.5t143.5 24.5q41 0 83 -9t81 -34q4 -4 12 -4q10 0 10 12v31q0 16 -5 32.5t-21.5 30.5t-45 22.5t-75.5 8.5t-91 -6t-98 -25q-33 -10 -43 -7t-16 21l-35 129q-10 41 23 56q135 55 315 55q209 0 295 -99.5t86 -279.5v-526 q0 -37 -35 -37h-207q-10 0 -19 7t-9 24v8q0 18 -11 18q-6 0 -16 -8q-47 -37 -92 -49t-98 -12q-78 0 -138.5 23.5t-102.5 65.5t-64.5 100.5t-22.5 127.5zM176 1063q0 12 10 27l199 282q10 10 19.5 16.5t25.5 6.5h207q16 0 25.5 -6.5t19.5 -16.5l199 -276q6 -10 6 -21 q0 -14 -15 -22l-86 -60q-10 -8 -22 -8q-10 0 -23 12l-198 205q-10 10 -15 10q-4 0 -12 -8l-199 -209q-12 -12 -20 -12q-4 0 -25 8l-84 56q-12 4 -12 16zM342 315q0 -49 32 -82.5t91 -33.5q55 0 89 32.5t34 83.5q0 49 -32 83t-91 34q-55 0 -89 -33t-34 -84z" />
<glyph unicode="&#xe3;" horiz-adv-x="991" d="M82 305q0 70 22.5 129.5t66.5 102.5t107.5 67.5t143.5 24.5q41 0 83 -9t81 -34q4 -4 12 -4q10 0 10 12v31q0 16 -5 32.5t-21.5 30.5t-45 22.5t-75.5 8.5t-91 -6t-98 -25q-33 -10 -43 -7t-16 21l-35 129q-10 41 23 56q135 55 315 55q209 0 295 -99.5t86 -279.5v-526 q0 -37 -35 -37h-207q-10 0 -19 7t-9 24v8q0 18 -11 18q-6 0 -16 -8q-47 -37 -92 -49t-98 -12q-78 0 -138.5 23.5t-102.5 65.5t-64.5 100.5t-22.5 127.5zM174 1124q0 4 4 17q43 102 101.5 139t115.5 37q35 0 68 -10.5t62.5 -23.5t57 -24.5t52.5 -11.5q27 0 48.5 12.5 t43.5 40.5q8 12 23 13q8 0 20 -6l84 -52q23 -12 23 -24q0 -4 -5 -17q-49 -98 -102 -132.5t-111 -34.5q-29 0 -60.5 10t-63 22.5t-62.5 22.5t-57 10q-20 0 -45 -8t-54 -43q-10 -16 -20 -17q-6 0 -18 7l-93 55q-12 6 -12 18zM342 315q0 -49 32 -82.5t91 -33.5q55 0 89 32.5 t34 83.5q0 49 -32 83t-91 34q-55 0 -89 -33t-34 -84z" />
<glyph unicode="&#xe4;" horiz-adv-x="991" d="M82 305q0 70 22.5 129.5t66.5 102.5t107.5 67.5t143.5 24.5q41 0 83 -9t81 -34q4 -4 12 -4q10 0 10 12v31q0 16 -5 32.5t-21.5 30.5t-45 22.5t-75.5 8.5t-91 -6t-98 -25q-33 -10 -43 -7t-16 21l-35 129q-10 41 23 56q135 55 315 55q209 0 295 -99.5t86 -279.5v-526 q0 -37 -35 -37h-207q-10 0 -19 7t-9 24v8q0 18 -11 18q-6 0 -16 -8q-47 -37 -92 -49t-98 -12q-78 0 -138.5 23.5t-102.5 65.5t-64.5 100.5t-22.5 127.5zM160 1155q0 59 43 101t106 42q66 0 109 -42t43 -101q0 -61 -43 -102t-109 -41t-107.5 40t-41.5 103zM342 315 q0 -49 32 -82.5t91 -33.5q55 0 89 32.5t34 83.5q0 49 -32 83t-91 34q-55 0 -89 -33t-34 -84zM547 1155q0 59 43 101t108 42q63 0 106.5 -42t43.5 -101q0 -61 -43 -102t-107 -41q-66 0 -108.5 40t-42.5 103z" />
<glyph unicode="&#xe5;" horiz-adv-x="991" d="M82 305q0 70 22.5 129.5t66.5 102.5t107.5 67.5t143.5 24.5q41 0 83 -9t81 -34q4 -4 12 -4q10 0 10 12v31q0 16 -5 32.5t-21.5 30.5t-45 22.5t-75.5 8.5t-91 -6t-98 -25q-33 -10 -43 -7t-16 21l-35 129q-10 41 23 56q135 55 315 55q209 0 295 -99.5t86 -279.5v-526 q0 -37 -35 -37h-207q-10 0 -19 7t-9 24v8q0 18 -11 18q-6 0 -16 -8q-47 -37 -92 -49t-98 -12q-78 0 -138.5 23.5t-102.5 65.5t-64.5 100.5t-22.5 127.5zM342 315q0 -49 32 -82.5t91 -33.5q55 0 89 32.5t34 83.5q0 49 -32 83t-91 34q-55 0 -89 -33t-34 -84zM373 1202 q0 76 52 131.5t134 55.5q39 0 75 -14.5t62.5 -40t42 -59.5t15.5 -73t-15.5 -72.5t-42 -58t-62.5 -39t-75 -14.5q-80 0 -133 53t-53 131zM496 1202q0 -29 18 -47t45 -18q29 0 49.5 18t20.5 47q0 27 -20.5 47.5t-49.5 20.5q-27 0 -45 -19.5t-18 -48.5z" />
<glyph unicode="&#xe6;" horiz-adv-x="1511" d="M84 307q0 70 22.5 131.5t67.5 105.5t111.5 69.5t156.5 25.5q43 0 85 -14.5t69 -34.5q23 -14 22 6v41q0 41 -37.5 68.5t-109.5 27.5q-49 0 -108.5 -18.5t-100.5 -34.5q-20 -8 -36.5 0t-22.5 27l-39 110q-6 18 2 32.5t24 22.5q80 35 146.5 51.5t157.5 16.5q72 0 136 -17.5 t113 -45.5q23 -16 37 -3q100 66 246 66q82 0 154.5 -24.5t128 -71.5t87 -114.5t31.5 -151.5v-99q0 -33 -18 -52t-53 -19h-408q-27 0 -35 -11.5t-8 -23.5v-23q0 -47 34 -80.5t87 -33.5q59 0 97 29.5t61 53.5q10 12 20 21.5t37 -6.5l123 -78q23 -16 36 -31.5t-3 -44.5 q-53 -96 -147.5 -144t-223.5 -48q-86 0 -154.5 21.5t-121.5 62.5q-12 8 -19.5 6t-11.5 -6q-57 -43 -129 -65.5t-148 -22.5q-82 0 -147.5 22.5t-112.5 65.5t-72.5 102t-25.5 133zM367 319q0 -47 31.5 -78.5t82.5 -31.5q55 0 85 34.5t30 75.5q0 45 -33 78t-80 33 q-53 0 -84.5 -31.5t-31.5 -79.5zM914 586q10 -8 34 -8h172q52 0 23 53q-12 23 -42 42t-75 19q-41 0 -69.5 -20.5t-38.5 -44.5q-14 -33 -4 -41z" />
<glyph unicode="&#xe7;" horiz-adv-x="903" d="M78 350v228q0 82 28.5 148.5t82 113.5t128 73.5t166.5 26.5q145 0 231.5 -57.5t139.5 -163.5q4 -8 4 -21q0 -10 -5 -23t-19 -20l-140 -77q-33 -16 -51 2t-33 41q-27 43 -61.5 57t-65.5 14q-53 0 -87 -33.5t-34 -80.5v-228q0 -47 34 -80.5t87 -33.5q27 0 50.5 10t43 25.5 t33 33t23.5 29.5q8 10 15 17t20 7q12 0 26 -8l150 -71q29 -14 28 -37q0 -12 -6 -27q-53 -109 -144 -165t-214 -62l-10 -41q-4 -6 6 -6h14q74 0 128 -46.5t54 -130.5q0 -31 -12 -64.5t-38.5 -61t-70.5 -45t-108 -17.5q-53 0 -96 14.5t-78 38.5q-10 8 -16.5 16.5t8.5 24.5 l49 56q14 16 20.5 16t18.5 -8q18 -10 41.5 -19.5t48.5 -9.5q49 0 68.5 18.5t19.5 38.5q0 10 -9 30t-50 20h-72q-35 -2 -58.5 21.5t-15.5 57.5l29 107q-139 27 -220 120t-81 232z" />
<glyph unicode="&#xe8;" horiz-adv-x="976" d="M86 350v228q0 82 29.5 148.5t83 113.5t128 73.5t165.5 26.5q182 0 291.5 -96t109.5 -266v-99q0 -33 -18.5 -52t-53.5 -19h-407q-27 0 -35 -11.5t-8 -23.5v-23q0 -47 33.5 -80.5t87.5 -33.5q59 0 97 29.5t60 53.5q8 8 14.5 16.5t16.5 8.5t27 -10l122 -78 q16 -10 28.5 -21.5t12.5 -27.5q0 -12 -8 -27q-53 -96 -147 -144t-223 -48q-92 0 -167 25.5t-128.5 73.5t-82 114.5t-28.5 148.5zM184 1331q0 20 21 31l155 76q12 4 21 4q27 0 39 -21l198 -323q6 -12 7 -23q0 -16 -21 -28l-78 -43q-20 -10 -34 -11q-14 0 -25 11l-270 296 q-12 12 -13 31zM375 602q0 -25 39 -24h172q31 0 30 28q0 15 -8 31q-12 23 -41.5 42t-74.5 19q-41 0 -70 -20.5t-39 -44.5q-8 -16 -8 -31z" />
<glyph unicode="&#xe9;" horiz-adv-x="976" d="M86 350v228q0 82 29.5 148.5t83 113.5t128 73.5t165.5 26.5q182 0 291.5 -96t109.5 -266v-99q0 -33 -18.5 -52t-53.5 -19h-407q-27 0 -35 -11.5t-8 -23.5v-23q0 -47 33.5 -80.5t87.5 -33.5q59 0 97 29.5t60 53.5q8 8 14.5 16.5t16.5 8.5t27 -10l122 -78 q16 -10 28.5 -21.5t12.5 -27.5q0 -12 -8 -27q-53 -96 -147 -144t-223 -48q-92 0 -167 25.5t-128.5 73.5t-82 114.5t-28.5 148.5zM334 1070q-2 13 6 28l199 323q12 18 29.5 20.5t29.5 -3.5l156 -76q27 -12 21.5 -32.5t-13.5 -29.5l-270 -296q-12 -12 -27.5 -10.5t-32.5 10.5 l-78 43q-18 10 -20 23zM375 602q0 -25 39 -24h172q31 0 30 28q0 15 -8 31q-12 23 -41.5 42t-74.5 19q-41 0 -70 -20.5t-39 -44.5q-8 -16 -8 -31z" />
<glyph unicode="&#xea;" horiz-adv-x="976" d="M86 350v228q0 82 29.5 148.5t83 113.5t128 73.5t165.5 26.5q182 0 291.5 -96t109.5 -266v-99q0 -33 -18.5 -52t-53.5 -19h-407q-27 0 -35 -11.5t-8 -23.5v-23q0 -47 33.5 -80.5t87.5 -33.5q59 0 97 29.5t60 53.5q8 8 14.5 16.5t16.5 8.5t27 -10l122 -78 q16 -10 28.5 -21.5t12.5 -27.5q0 -12 -8 -27q-53 -96 -147 -144t-223 -48q-92 0 -167 25.5t-128.5 73.5t-82 114.5t-28.5 148.5zM131 1063q0 12 10 27l199 282q10 10 19.5 16.5t25.5 6.5h207q16 0 25.5 -6.5t19.5 -16.5l199 -276q6 -10 6 -21q0 -14 -15 -22l-86 -60 q-10 -8 -22 -8q-10 0 -23 12l-198 205q-10 10 -15 10q-4 0 -12 -8l-199 -209q-12 -12 -20 -12q-4 0 -25 8l-84 56q-12 4 -12 16zM375 602q0 -25 39 -24h172q31 0 30 28q0 15 -8 31q-12 23 -41.5 42t-74.5 19q-41 0 -70 -20.5t-39 -44.5q-8 -16 -8 -31z" />
<glyph unicode="&#xeb;" horiz-adv-x="976" d="M86 350v228q0 82 29.5 148.5t83 113.5t128 73.5t165.5 26.5q182 0 291.5 -96t109.5 -266v-99q0 -33 -18.5 -52t-53.5 -19h-407q-27 0 -35 -11.5t-8 -23.5v-23q0 -47 33.5 -80.5t87.5 -33.5q59 0 97 29.5t60 53.5q8 8 14.5 16.5t16.5 8.5t27 -10l122 -78 q16 -10 28.5 -21.5t12.5 -27.5q0 -12 -8 -27q-53 -96 -147 -144t-223 -48q-92 0 -167 25.5t-128.5 73.5t-82 114.5t-28.5 148.5zM152 1155q0 59 43 101t106 42q66 0 109 -42t43 -101q0 -61 -43 -102t-109 -41t-107.5 40t-41.5 103zM375 602q0 -25 39 -24h172q31 0 30 28 q0 15 -8 31q-12 23 -41.5 42t-74.5 19q-41 0 -70 -20.5t-39 -44.5q-8 -16 -8 -31zM539 1155q0 59 43 101t108 42q63 0 106.5 -42t43.5 -101q0 -61 -43 -102t-107 -41q-66 0 -108.5 40t-42.5 103z" />
<glyph unicode="&#xec;" horiz-adv-x="499" d="M-61 1331q0 20 20 31l156 76q12 4 20 4q27 0 39 -21l199 -323q6 -12 6 -23q0 -16 -21 -28l-77 -43q-20 -10 -35 -11q-14 0 -25 11l-270 296q-12 12 -12 31zM109 43v834q0 45 45 45h190q18 0 32.5 -11.5t14.5 -33.5v-834q0 -43 -47 -43h-190q-45 0 -45 43z" />
<glyph unicode="&#xed;" horiz-adv-x="499" d="M109 43v834q0 45 45 45h190q18 0 32.5 -11.5t14.5 -33.5v-834q0 -43 -47 -43h-190q-45 0 -45 43zM117 1070q-2 13 6 28l199 323q12 18 29.5 20.5t29.5 -3.5l156 -76q27 -12 21.5 -32.5t-13.5 -29.5l-271 -296q-12 -12 -27.5 -10.5t-31.5 10.5l-78 43q-18 10 -20 23z" />
<glyph unicode="&#xee;" horiz-adv-x="499" d="M-92 1063q0 12 10 27l199 282q10 10 19 16.5t26 6.5h207q16 0 25 -6.5t20 -16.5l198 -276q6 -10 6 -21q0 -14 -14 -22l-86 -60q-10 -8 -22 -8q-10 0 -23 12l-199 205q-10 10 -14 10t-12 -8l-199 -209q-12 -12 -20 -12q-4 0 -25 8l-84 56q-12 4 -12 16zM109 43v834 q0 45 45 45h190q18 0 32.5 -11.5t14.5 -33.5v-834q0 -43 -47 -43h-190q-45 0 -45 43z" />
<glyph unicode="&#xef;" horiz-adv-x="499" d="M-104 1155q0 59 43 101t106 42q66 0 109 -42t43 -101q0 -61 -43 -102t-109 -41t-107.5 40t-41.5 103zM109 43v834q0 45 45 45h190q18 0 32.5 -11.5t14.5 -33.5v-834q0 -43 -47 -43h-190q-45 0 -45 43zM283 1155q0 59 43 101t108 42q63 0 106.5 -42t43.5 -101 q0 -61 -43 -102t-107 -41q-66 0 -108.5 40t-42.5 103z" />
<glyph unicode="&#xf0;" horiz-adv-x="993" d="M84 360v115q0 168 89 270.5t265 102.5q66 0 115 -18.5t72 -34.5q14 -10 14 6v69q0 35 -8 62q-2 6 -8.5 12t-20.5 -8l-53 -53q-25 -20 -43 -2l-60 53q-27 25 0 51l60 59q10 10 4 17.5t-12 9.5q-53 18 -121 19q-18 0 -35.5 10t-17.5 33v135q2 43 49 43q96 0 168.5 -16.5 t130.5 -45.5q6 -4 15 -8t22 10l67 70q12 10 22.5 12t24.5 -12l60 -49q25 -25 0 -49l-70 -72q-10 -12 0 -31q41 -68 58.5 -153.5t17.5 -186.5v-399q0 -186 -106.5 -289.5t-288.5 -103.5q-90 0 -166 23.5t-130.5 69.5t-84 115.5t-29.5 163.5zM367 348q0 -51 36.5 -80.5 t81.5 -29.5q49 0 85 28.5t36 81.5v154q0 53 -35.5 82.5t-87.5 29.5q-45 0 -80.5 -32.5t-35.5 -83.5v-150z" />
<glyph unicode="&#xf1;" horiz-adv-x="1017" d="M109 43v836q0 43 45 43h200q37 0 37 -43q0 -12 8 -13q4 0 13 8q29 23 81 42.5t103 19.5q82 0 142.5 -27.5t99.5 -75t57 -113t18 -140.5v-537q0 -43 -43 -43h-192q-23 0 -36 11.5t-13 31.5v532q0 47 -25.5 80t-93.5 33q-53 0 -86 -32.5t-33 -80.5v-532q0 -43 -47 -43h-190 q-45 0 -45 43zM141 1124q0 4 4 17q43 102 101.5 139t115.5 37q35 0 68 -10.5t62.5 -23.5t57.5 -24.5t52 -11.5q27 0 48.5 12.5t43.5 40.5q8 12 23 13q8 0 20 -6l84 -52q23 -12 23 -24q0 -4 -4 -17q-49 -98 -102.5 -132.5t-110.5 -34.5q-29 0 -60.5 10t-63.5 22.5t-62.5 22.5 t-57.5 10q-20 0 -45 -8t-53 -43q-10 -16 -21 -17q-6 0 -18 7l-92 55q-12 6 -13 18z" />
<glyph unicode="&#xf2;" horiz-adv-x="997" d="M94 332v256q0 76 29 141.5t82 111.5t127 72.5t166 26.5q90 0 164.5 -22.5t128 -66.5t83 -110.5t29.5 -152.5v-244q0 -88 -30.5 -154.5t-86 -111.5t-129 -67.5t-159.5 -22.5q-90 0 -165 24.5t-128 70.5t-82 108.5t-29 140.5zM215 1331q0 20 21 31l155 76q12 4 21 4 q27 0 39 -21l198 -323q6 -12 6 -23q0 -16 -20 -28l-78 -43q-20 -10 -35 -11q-14 0 -24 11l-271 296q-12 12 -12 31zM377 346q0 -51 32.5 -80.5t88.5 -29.5q55 0 87.5 28.5t32.5 81.5v232q0 53 -32.5 82.5t-89.5 29.5q-55 0 -87 -32.5t-32 -84.5v-227z" />
<glyph unicode="&#xf3;" horiz-adv-x="997" d="M94 332v256q0 76 29 141.5t82 111.5t127 72.5t166 26.5q90 0 164.5 -22.5t128 -66.5t83 -110.5t29.5 -152.5v-244q0 -88 -30.5 -154.5t-86 -111.5t-129 -67.5t-159.5 -22.5q-90 0 -165 24.5t-128 70.5t-82 108.5t-29 140.5zM332 1070q-2 13 6 28l199 323q12 18 29.5 20.5 t29.5 -3.5l156 -76q27 -12 21.5 -32.5t-13.5 -29.5l-271 -296q-12 -12 -27.5 -10.5t-31.5 10.5l-78 43q-18 10 -20 23zM377 346q0 -51 32.5 -80.5t88.5 -29.5q55 0 87.5 28.5t32.5 81.5v232q0 53 -32.5 82.5t-89.5 29.5q-55 0 -87 -32.5t-32 -84.5v-227z" />
<glyph unicode="&#xf4;" horiz-adv-x="997" d="M94 332v256q0 76 29 141.5t82 111.5t127 72.5t166 26.5q90 0 164.5 -22.5t128 -66.5t83 -110.5t29.5 -152.5v-244q0 -88 -30.5 -154.5t-86 -111.5t-129 -67.5t-159.5 -22.5q-90 0 -165 24.5t-128 70.5t-82 108.5t-29 140.5zM147 1063q0 12 11 27l198 282q10 10 19.5 16.5 t25.5 6.5h207q16 0 25.5 -6.5t19.5 -16.5l199 -276q6 -10 6 -21q0 -14 -14 -22l-86 -60q-10 -8 -23 -8q-10 0 -22 12l-199 205q-10 10 -14 10t-13 -8l-198 -209q-12 -12 -21 -12q-4 0 -24 8l-84 56q-12 4 -13 16zM377 346q0 -51 32.5 -80.5t88.5 -29.5q55 0 87.5 28.5 t32.5 81.5v232q0 53 -32.5 82.5t-89.5 29.5q-55 0 -87 -32.5t-32 -84.5v-227z" />
<glyph unicode="&#xf5;" horiz-adv-x="997" d="M94 332v256q0 76 29 141.5t82 111.5t127 72.5t166 26.5q90 0 164.5 -22.5t128 -66.5t83 -110.5t29.5 -152.5v-244q0 -88 -30.5 -154.5t-86 -111.5t-129 -67.5t-159.5 -22.5q-90 0 -165 24.5t-128 70.5t-82 108.5t-29 140.5zM164 1124q0 4 4 17q43 102 101.5 139t115.5 37 q35 0 67.5 -10.5t62.5 -23.5t57.5 -24.5t52.5 -11.5q27 0 48 12.5t44 40.5q8 12 22 13q8 0 21 -6l84 -52q23 -12 22 -24q0 -4 -4 -17q-49 -98 -102 -132.5t-111 -34.5q-29 0 -60.5 10t-63 22.5t-62.5 22.5t-57 10q-20 0 -45 -8t-54 -43q-10 -16 -20 -17q-6 0 -19 7l-92 55 q-12 6 -12 18zM377 346q0 -51 32.5 -80.5t88.5 -29.5q55 0 87.5 28.5t32.5 81.5v232q0 53 -32.5 82.5t-89.5 29.5q-55 0 -87 -32.5t-32 -84.5v-227z" />
<glyph unicode="&#xf6;" horiz-adv-x="997" d="M94 332v256q0 76 29 141.5t82 111.5t127 72.5t166 26.5q90 0 164.5 -22.5t128 -66.5t83 -110.5t29.5 -152.5v-244q0 -88 -30.5 -154.5t-86 -111.5t-129 -67.5t-159.5 -22.5q-90 0 -165 24.5t-128 70.5t-82 108.5t-29 140.5zM158 1155q0 59 43 101t106 42q66 0 109 -42 t43 -101q0 -61 -43 -102t-109 -41t-107.5 40t-41.5 103zM377 346q0 -51 32.5 -80.5t88.5 -29.5q55 0 87.5 28.5t32.5 81.5v232q0 53 -32.5 82.5t-89.5 29.5q-55 0 -87 -32.5t-32 -84.5v-227zM545 1155q0 59 43 101t108 42q63 0 106.5 -42t43.5 -101q0 -61 -43 -102t-107 -41 q-66 0 -108.5 40t-42.5 103z" />
<glyph unicode="&#xf7;" d="M78 553v96q0 45 49 45h807q49 0 49 -45v-94q0 -51 -49 -51h-807q-49 0 -49 49zM354 229q0 72 52.5 119t123.5 47q72 0 123.5 -48t51.5 -118q0 -33 -13.5 -62.5t-37 -52t-55.5 -35.5t-69 -13t-68.5 12t-55 34.5t-38 52.5t-14.5 64zM354 967q0 72 52.5 119t123.5 47 q72 0 123.5 -48t51.5 -118q0 -68 -50.5 -117t-124.5 -49t-125 48t-51 118z" />
<glyph unicode="&#xf8;" horiz-adv-x="997" d="M80 49q-16 14 6 43l45 53q6 8 9 12.5t-1 12.5q-45 74 -45 162v256q0 76 30 141.5t84 111.5t128 72.5t162 26.5q66 0 130 -17.5t117 -50.5q6 -4 12.5 -5t14.5 7l49 56q23 23 41 6l53 -45q14 -18 -6 -45l-53 -60q-6 -8 -4 -12t6 -14q45 -78 45 -172v-244 q0 -88 -32.5 -154.5t-89 -111.5t-130 -67.5t-153.5 -22.5q-147 -1 -258 75q-12 8 -23 -4l-45 -51q-18 -27 -41 -6zM377 438q0 -10 3 -8t7 6l184 209q14 14 -10 29q-29 16 -65 16q-45 0 -82 -32.5t-37 -84.5v-135zM422 258q35 -23 76 -22q49 0 84.5 28.5t35.5 81.5v148 q0 18 -14 4l-182 -207q-18 -23 0 -33z" />
<glyph unicode="&#xf9;" horiz-adv-x="999" d="M96 342v537q0 43 43 43h193q23 0 36 -11.5t13 -31.5v-533q0 -47 24.5 -80t94.5 -33q66 0 92 38t26 75v533q0 43 48 43h190q45 0 45 -43v-836q0 -43 -45 -43h-201q-37 0 -37 43q0 10 -6 11t-14 -7q-35 -31 -90 -46t-107 -15q-84 0 -141 27.5t-94 74.5t-53.5 112.5 t-16.5 141.5zM221 1331q0 20 21 31l155 76q12 4 21 4q27 0 39 -21l198 -323q6 -12 7 -23q0 -16 -21 -28l-78 -43q-20 -10 -35 -11q-14 0 -24 11l-271 296q-12 12 -12 31z" />
<glyph unicode="&#xfa;" horiz-adv-x="999" d="M96 342v537q0 43 43 43h193q23 0 36 -11.5t13 -31.5v-533q0 -47 24.5 -80t94.5 -33q66 0 92 38t26 75v533q0 43 48 43h190q45 0 45 -43v-836q0 -43 -45 -43h-201q-37 0 -37 43q0 10 -6 11t-14 -7q-35 -31 -90 -46t-107 -15q-84 0 -141 27.5t-94 74.5t-53.5 112.5 t-16.5 141.5zM358.5 1070q-2.5 13 6.5 28l198 323q12 18 29.5 20.5t30.5 -3.5l155 -76q27 -12 22 -32.5t-14 -29.5l-270 -296q-12 -12 -27.5 -10.5t-31.5 10.5l-78 43q-18 10 -20.5 23z" />
<glyph unicode="&#xfb;" horiz-adv-x="999" d="M96 342v537q0 43 43 43h193q23 0 36 -11.5t13 -31.5v-533q0 -47 24.5 -80t94.5 -33q66 0 92 38t26 75v533q0 43 48 43h190q45 0 45 -43v-836q0 -43 -45 -43h-201q-37 0 -37 43q0 10 -6 11t-14 -7q-35 -31 -90 -46t-107 -15q-84 0 -141 27.5t-94 74.5t-53.5 112.5 t-16.5 141.5zM143 1063q0 12 11 27l198 282q10 10 19.5 16.5t25.5 6.5h207q16 0 25.5 -6.5t19.5 -16.5l199 -276q6 -10 6 -21q0 -14 -14 -22l-86 -60q-10 -8 -23 -8q-10 0 -22 12l-199 205q-10 10 -14 10t-13 -8l-198 -209q-12 -12 -21 -12q-4 0 -24 8l-84 56q-12 4 -13 16z " />
<glyph unicode="&#xfc;" horiz-adv-x="999" d="M96 342v537q0 43 43 43h193q23 0 36 -11.5t13 -31.5v-533q0 -47 24.5 -80t94.5 -33q66 0 92 38t26 75v533q0 43 48 43h190q45 0 45 -43v-836q0 -43 -45 -43h-201q-37 0 -37 43q0 10 -6 11t-14 -7q-35 -31 -90 -46t-107 -15q-84 0 -141 27.5t-94 74.5t-53.5 112.5 t-16.5 141.5zM158 1155q0 59 43 101t106 42q66 0 109 -42t43 -101q0 -61 -43 -102t-109 -41t-107.5 40t-41.5 103zM545 1155q0 59 43 101t108 42q63 0 106.5 -42t43.5 -101q0 -61 -43 -102t-107 -41q-66 0 -108.5 40t-42.5 103z" />
<glyph unicode="&#xfd;" horiz-adv-x="970" d="M25 870q-8 27 3 39.5t33 12.5h220q27 0 36 -12.5t15 -32.5l86 -342l49 -218q4 -16 12 -13t13 13l155 560q6 20 19.5 32.5t42.5 12.5h196q23 0 36 -16.5t3 -45.5l-375 -1190q-6 -18 -19 -30.5t-36 -12.5h-188q-23 0 -34 13.5t-1 42.5l80 278q6 23 2 31t-25 8h-24 q-25 0 -36.5 12.5t-17.5 30.5zM375 1070q-2 13 6 28l199 323q12 18 29.5 20.5t29.5 -3.5l156 -76q27 -12 21.5 -32.5t-13.5 -29.5l-271 -296q-12 -12 -27.5 -10.5t-31.5 10.5l-78 43q-18 10 -20 23z" />
<glyph unicode="&#xfe;" horiz-adv-x="993" d="M106 -328v1549q0 43 48 43h192q18 0 30.5 -6.5t12.5 -36.5v-301q0 -25 5 -33t12.5 -7t14.5 7t11 10q31 25 69 33t68 8q92 0 157 -32t105.5 -83t60 -117.5t19.5 -134.5v-225q0 -78 -26.5 -143.5t-74.5 -114.5t-116.5 -76.5t-152.5 -27.5q-27 0 -58.5 6t-54.5 20 q-39 27 -39 0v-338q0 -23 -13.5 -33t-31.5 -10h-190q-47 0 -48 43zM389 346q0 -49 34 -82t87 -33t86 33t33 82v225q0 49 -34 82t-85 33q-53 0 -87 -34t-34 -81v-225z" />
<glyph unicode="&#xff;" horiz-adv-x="970" d="M25 870q-8 27 3 39.5t33 12.5h220q27 0 36 -12.5t15 -32.5l86 -342l49 -218q4 -16 12 -13t13 13l155 560q6 20 19.5 32.5t42.5 12.5h196q23 0 36 -16.5t3 -45.5l-375 -1190q-6 -18 -19 -30.5t-36 -12.5h-188q-23 0 -34 13.5t-1 42.5l80 278q6 23 2 31t-25 8h-24 q-25 0 -36.5 12.5t-17.5 30.5zM156 1155q0 59 43 101t106 42q66 0 109 -42t43 -101q0 -61 -43 -102t-109 -41t-107.5 40t-41.5 103zM543 1155q0 59 43 101t108 42q63 0 106.5 -42t43.5 -101q0 -61 -43 -102t-107 -41q-66 0 -108.5 40t-42.5 103z" />
<glyph unicode="&#x152;" horiz-adv-x="1503" d="M125 362v545q0 184 113.5 281.5t306.5 97.5q41 0 81 -5t74 -15h672q20 0 31.5 -9.5t11.5 -33.5v-172q0 -45 -43 -45h-420q-31 0 -40 -9.5t-9 -29.5v-144q0 -29 7.5 -40t37.5 -11h346q25 0 34 -10t9 -33v-172q0 -23 -9 -34t-34 -11h-352q-29 0 -34 -10t-5 -33v-162 q0 -29 13.5 -37t46.5 -8h423q43 0 44 -45v-172q0 -45 -44 -45h-712q-27 -6 -61.5 -9t-65.5 -3q-201 0 -311.5 95t-110.5 279zM416 362q0 -51 35.5 -81.5t101.5 -30.5q16 0 31.5 2t27.5 6v758q-31 10 -57 10q-68 0 -103.5 -32.5t-35.5 -86.5v-545z" />
<glyph unicode="&#x153;" horiz-adv-x="1525" d="M100 332v256q0 76 29 141.5t81 111.5t126 72.5t162 26.5q61 0 118.5 -17.5t108.5 -58.5q23 -18 38 -19t36 15q45 35 105.5 57.5t125.5 22.5q102 0 195.5 -40t152.5 -124q29 -43 41.5 -97t12.5 -101v-99q0 -33 -18.5 -52t-53.5 -19h-408q-27 0 -35 -11.5t-8 -23.5v-23 q0 -47 34 -80.5t87 -33.5q59 0 97 29.5t61 53.5q10 12 20.5 21.5t36.5 -6.5l123 -78q23 -16 36 -31.5t-3 -44.5q-12 -23 -32.5 -47t-49.5 -51q-49 -45 -124 -69.5t-165 -24.5q-72 0 -133 22.5t-109 63.5q-10 8 -20 10t-31 -14q-47 -39 -110.5 -60.5t-128.5 -21.5 q-82 0 -154 24.5t-126 70.5t-86 108.5t-32 140.5zM381 346q0 -51 36 -80.5t81 -29.5q49 0 82.5 28.5t33.5 81.5v232q0 53 -33.5 82.5t-84.5 29.5q-45 0 -80 -32.5t-35 -84.5v-227zM918 586q10 -8 34 -8h172q52 0 23 53q-12 23 -42 42t-75 19q-41 0 -69.5 -20.5t-38.5 -44.5 q-14 -33 -4 -41z" />
<glyph unicode="&#x178;" horiz-adv-x="1011" d="M22 1246q1 18 41 20h205q29 0 46.5 -7.5t31.5 -37.5l150 -412q4 -8 10 -7t8 5l148 410q10 25 25 37t54 12h193q41 0 47 -19.5t0 -34.5l-315 -725q-10 -20 -13.5 -31.5t-3.5 -27.5v-379q0 -49 -49 -49h-192q-49 0 -50 49v385q0 10 -2 21.5t-10 27.5l-317 727q-8 18 -7 36z M156 1470q0 59 43 101.5t106 42.5q66 0 109 -42.5t43 -101.5q0 -61 -43 -102t-109 -41t-107.5 40t-41.5 103zM543 1470q0 59 43 101.5t108 42.5q63 0 106.5 -42.5t43.5 -101.5q0 -61 -43 -102t-107 -41q-66 0 -108.5 40t-42.5 103z" />
<glyph unicode="&#x2c6;" horiz-adv-x="964" d="M129 1063q0 12 10 27l199 282q10 10 19.5 16.5t25.5 6.5h207q16 0 25.5 -6.5t19.5 -16.5l199 -276q6 -10 6 -21q0 -14 -15 -22l-86 -60q-10 -8 -22 -8q-10 0 -23 12l-198 205q-10 10 -15 10q-4 0 -12 -8l-199 -209q-12 -12 -20 -12q-4 0 -25 8l-84 56q-12 4 -12 16z" />
<glyph unicode="&#x2dc;" horiz-adv-x="964" d="M154 1124q0 4 4 17q43 102 101.5 139t115.5 37q35 0 67.5 -10.5t62.5 -23.5t57.5 -24.5t51.5 -11.5q27 0 48.5 12.5t44.5 40.5q8 12 22 13q8 0 21 -6l84 -52q23 -12 22 -24q0 -4 -4 -17q-49 -98 -102.5 -132.5t-110.5 -34.5q-29 0 -60.5 10t-63.5 22.5t-62.5 22.5 t-57.5 10q-20 0 -44.5 -8t-53.5 -43q-10 -16 -21 -17q-6 0 -18 7l-92 55q-12 6 -12 18z" />
<glyph unicode="&#x2000;" horiz-adv-x="858" />
<glyph unicode="&#x2001;" horiz-adv-x="1716" />
<glyph unicode="&#x2002;" horiz-adv-x="858" />
<glyph unicode="&#x2003;" horiz-adv-x="1716" />
<glyph unicode="&#x2004;" horiz-adv-x="572" />
<glyph unicode="&#x2005;" horiz-adv-x="429" />
<glyph unicode="&#x2006;" horiz-adv-x="286" />
<glyph unicode="&#x2007;" horiz-adv-x="286" />
<glyph unicode="&#x2008;" horiz-adv-x="214" />
<glyph unicode="&#x2009;" horiz-adv-x="343" />
<glyph unicode="&#x200a;" horiz-adv-x="95" />
<glyph unicode="&#x2010;" horiz-adv-x="628" d="M70 401v138q0 35 43 34h401q41 0 41 -34v-138q0 -37 -41 -36h-401q-43 0 -43 36z" />
<glyph unicode="&#x2011;" horiz-adv-x="628" d="M70 401v138q0 35 43 34h401q41 0 41 -34v-138q0 -37 -41 -36h-401q-43 0 -43 36z" />
<glyph unicode="&#x2012;" horiz-adv-x="628" d="M70 401v138q0 35 43 34h401q41 0 41 -34v-138q0 -37 -41 -36h-401q-43 0 -43 36z" />
<glyph unicode="&#x2013;" horiz-adv-x="1024" d="M41 436v103q0 35 45 34h852q18 0 31.5 -9t13.5 -25v-103q0 -35 -45 -35h-852q-45 0 -45 35z" />
<glyph unicode="&#x2014;" horiz-adv-x="2048" d="M41 436v103q0 35 45 34h1876q45 0 45 -34v-103q0 -35 -45 -35h-1876q-45 0 -45 35z" />
<glyph unicode="&#x2018;" horiz-adv-x="505" d="M79 877.5q-11 29.5 3 76.5l111 353q14 43 36.5 55t59.5 12h59q25 0 38 -9t18.5 -23.5t5.5 -32v-31.5l-25 -338q-4 -37 -23.5 -64.5t-70.5 -27.5h-133q-68 0 -79 29.5z" />
<glyph unicode="&#x2019;" horiz-adv-x="505" d="M115 911.5v32.5l22 338q4 37 23.5 64.5t70.5 27.5h134q68 0 79 -29.5t-4 -76.5l-110 -353q-14 -43 -37 -55t-57 -12h-62q-25 0 -37 9t-17 23.5t-5 31z" />
<glyph unicode="&#x201a;" horiz-adv-x="499" d="M94 -147l25 340q4 35 23.5 62.5t70.5 27.5h131q68 0 81 -30t-3 -77l-113 -352q-14 -43 -36.5 -55.5t-57.5 -12.5h-61q-25 0 -37.5 9.5t-17.5 23.5t-5 31.5v32.5z" />
<glyph unicode="&#x201c;" horiz-adv-x="837" d="M79 877.5q-11 29.5 3 76.5l111 353q14 43 36.5 55t59.5 12h59q25 0 38 -9t18.5 -23.5t5.5 -32v-31.5l-25 -338q-4 -37 -23.5 -64.5t-70.5 -27.5h-133q-68 0 -79 29.5zM445 877.5q-13 29.5 4 76.5l112 353q14 43 37 55t57 12h62q47 0 54 -32.5t5 -63.5l-24 -338 q-4 -37 -23.5 -64.5t-71.5 -27.5h-131q-68 0 -81 29.5z" />
<glyph unicode="&#x201d;" horiz-adv-x="837" d="M82 944l24 338q4 37 22.5 64.5t72.5 27.5h131q68 0 81 -29.5t-3 -76.5l-113 -353q-14 -43 -36.5 -55t-57.5 -12h-62q-47 0 -54 32.5t-5 63.5zM449 944l24 338q4 37 23.5 64.5t70.5 27.5h131q68 0 80.5 -29.5t-2.5 -76.5l-110 -353q-14 -43 -37 -55t-60 -12h-61 q-47 0 -54.5 32.5t-4.5 63.5z" />
<glyph unicode="&#x201e;" horiz-adv-x="886" d="M94 -147l25 340q4 35 23.5 62.5t70.5 27.5h131q68 0 81 -30t-3 -77l-113 -352q-14 -43 -36.5 -55.5t-57.5 -12.5h-61q-25 0 -37.5 9.5t-17.5 23.5t-5 31.5v32.5zM483 -147l25 340q4 35 23.5 62.5t70.5 27.5h131q68 0 81 -30t-3 -77l-113 -352q-14 -43 -36.5 -55.5 t-57.5 -12.5h-61q-25 0 -37 9.5t-17.5 23.5t-5.5 31.5v32.5z" />
<glyph unicode="&#x2022;" horiz-adv-x="788" d="M117 485q0 57 21.5 109.5t60.5 90.5t89 60.5t109 22.5q57 0 108.5 -22.5t90.5 -60.5t60.5 -90t21.5 -110q0 -57 -21.5 -108t-60.5 -89t-90.5 -60.5t-108.5 -22.5q-59 0 -109 22.5t-89 60.5t-60.5 89t-21.5 108z" />
<glyph unicode="&#x2026;" horiz-adv-x="1605" d="M131 133q0 66 47 110t113 44q33 0 62.5 -12.5t51 -33t35 -49t13.5 -59.5t-13.5 -58.5t-35 -49t-51 -33.5t-62.5 -12q-66 0 -113 46t-47 107zM662 133q0 66 48 110t113 44q33 0 62.5 -12.5t51 -33t35 -49t13.5 -59.5t-13.5 -58.5t-35 -49t-51 -33.5t-62.5 -12t-62.5 12 t-51 33.5t-34.5 49t-13 58.5zM1184 133q0 66 48 110t114 44t112.5 -45t46.5 -109q0 -31 -13 -58.5t-34.5 -49t-50 -33.5t-61.5 -12q-68 0 -115 46t-47 107z" />
<glyph unicode="&#x202f;" horiz-adv-x="343" />
<glyph unicode="&#x2039;" horiz-adv-x="796" d="M134 412.5q-1 25.5 24 56.5l233 274q20 25 37.5 34t46.5 9h168q29 0 40 -23.5t-9 -45.5l-238 -281q-10 -12 -10 -20t12 -23l240 -284q23 -25 11.5 -46.5t-46.5 -21.5h-170q-35 0 -50 12.5t-28 26.5l-237 282q-23 25 -24 50.5z" />
<glyph unicode="&#x203a;" horiz-adv-x="796" d="M134 62.5q-11 21.5 11 46.5l240 284q12 14 12 22.5t-10 20.5l-237 281q-20 23 -9 46t39 23h168q29 0 46.5 -9t37.5 -34l234 -274q25 -31 23.5 -56.5t-23.5 -50.5l-238 -282q-12 -14 -27.5 -26.5t-50.5 -12.5h-170q-35 0 -46 21.5z" />
<glyph unicode="&#x205f;" horiz-adv-x="429" />
<glyph unicode="&#x20ac;" d="M59 453v86q0 43 45 43h594q18 0 31.5 -12.5t13.5 -30.5v-86q0 -43 -45 -43h-206q-20 0 -30.5 -10.5t-10.5 -20.5v-29q0 -31 14 -52.5t36.5 -34.5t49.5 -19t53 -6q66 0 106 35.5t64 66.5q10 10 19.5 18.5t33.5 -4.5l129 -61q14 -6 24.5 -15.5t14.5 -13.5q14 -18 0 -57 q-27 -63 -67.5 -105.5t-93 -68t-115 -35.5t-129.5 -10q-70 0 -144.5 20.5t-136 64.5t-101.5 111.5t-38 161.5v35q0 29 -31 29h-35q-45 0 -45 43zM59 705v88q0 43 45 43h37q20 0 24.5 10t4.5 20v52q0 94 36 162.5t95 113.5t135 67.5t154 22.5q63 0 126.5 -12t118 -39 t95.5 -69t61 -99q4 -10 4 -28.5t-26 -32.5l-133 -80q-23 -12 -40.5 -10.5t-25.5 12.5q-8 10 -20.5 28.5t-33 36t-51 30.5t-75.5 13q-16 0 -41 -7t-46.5 -20.5t-36.5 -36t-15 -52.5v-44q0 -23 12 -30.5t49 -7.5h186q45 0 45 -43v-88q0 -43 -45 -43h-594q-45 0 -45 43z" />
<glyph unicode="&#x2122;" horiz-adv-x="1261" d="M47 1141v98q0 27 27 27h418q27 0 26 -27v-98q0 -25 -26 -25h-89q-29 0 -33.5 -12t-4.5 -25v-467q0 -25 -27 -24h-111q-27 0 -26 24v467q0 37 -29 37h-98q-27 0 -27 25zM555 612v623q0 10 8 20.5t23 10.5h78q20 0 26 -5.5t17 -23.5l161 -367q12 -25 23 0l156 365 q10 18 18 24.5t25 6.5h79q14 0 22.5 -10.5t8.5 -20.5v-623q0 -25 -26 -24h-99q-27 0 -26 24v228q0 14 -6.5 13t-12.5 -11l-94 -209q-8 -12 -14.5 -19.5t-24.5 -7.5h-41q-14 0 -20.5 4t-14.5 19l-92 211q-6 10 -12 10t-6 -10l-2 -228q0 -25 -27 -24h-100q-27 0 -27 24z" />
<glyph unicode="&#xe000;" horiz-adv-x="921" d="M0 0v922h922v-922h-922z" />
</font>
</defs>
</svg>
